<?xml version="1.0" standalone="no"?>
<!DOCTYPE svg PUBLIC "-//W3C//DTD SVG 1.1//EN" "http://www.w3.org/Graphics/SVG/1.1/DTD/svg11.dtd" >
<svg xmlns="http://www.w3.org/2000/svg">
<metadata>
<json>
{
	"fontFamily": "mathworks",
	"majorVersion": 1,
	"minorVersion": 0,
	"version": "Version 1.0",
	"fontId": "mathworks",
	"psName": "mathworks",
	"subFamily": "Regular",
	"fullName": "mathworks",
	"description": "Font generated by IcoMoon."
}
</json>
</metadata>
<defs>
<font id="mathworks" horiz-adv-x="1024">
<font-face units-per-em="1024" ascent="960" descent="-64" />
<missing-glyph horiz-adv-x="1024" />
<glyph unicode="&#x20;" d="" horiz-adv-x="512" />
<glyph unicode="&#xe600;" d="M944.014 199.395c2.674-6.713 5.006-17.010 6.997-31.004s4.324-32.313 6.997-55.012c0-6.713 0.341-13.312 1.024-20.025s1.65-10.695 3.015-12.004v-8.021l-5.973-5.973c-10.695-10.695-27.989-19.684-51.996-27.022s-53.988-14.336-89.998-20.992c-37.319-3.982-81.010-7.68-131.015-10.98s-107.065-4.267-171.065-2.958c-62.692-1.308-119.012-0.284-169.017 3.015s-93.639 6.997-131.015 10.98c-36.011 6.656-65.991 13.653-89.998 20.992-24.007 7.282-41.984 17.010-53.988 29.013l-5.973 3.982v8.021c0 9.33 0.341 19.684 1.024 31.004s1.65 21.675 3.015 31.004c1.308 10.695 3.356 20.309 5.973 29.013 2.674 8.647 5.348 17.692 8.021 27.022 2.674 6.656 5.689 13.312 8.988 20.025 3.356 6.656 6.997 12.004 10.98 15.986 3.982 8.021 8.647 13.995 13.995 17.977s11.321 9.33 17.977 15.986c2.674 1.308 13.028 5.689 31.004 13.028 17.977 7.282 43.691 16.327 77.028 27.022 13.312 5.291 26.34 9.671 39.026 13.028 12.686 3.3 24.348 7.68 34.987 13.028 10.695 3.982 20.992 8.306 31.004 13.028 10.012 4.665 19.684 8.306 29.013 10.98 1.308 2.674 3.015 4.665 5.006 5.973s3.641 3.982 5.006 8.021c10.695 12.004 17.977 23.666 22.016 34.987 3.982 11.321 4.665 20.309 1.991 27.022 0 2.674-0.683 4.324-1.991 5.006-1.422 0.512-2.731 2.844-4.096 6.827-1.308 0-3.356 1.991-5.973 5.973-6.656 8.021-13.028 15.36-19.001 22.016-6.030 6.713-11.662 16.043-17.010 28.046-5.348 7.964-10.638 17.977-15.986 29.98s-10.695 24.007-15.986 36.011c-1.308 3.982-2.332 6.997-3.015 8.988s-1.024 5.689-1.024 10.98c-5.291 25.316-8.988 50.005-10.98 74.012s-1.65 45.34 1.024 64c2.617 22.699 7.623 42.325 14.962 58.994s16.327 32.996 27.022 48.981c6.656 9.33 15.019 18.318 24.974 27.022 10.012 8.647 20.992 15.019 32.996 19.001 13.369 6.656 27.705 11.662 43.008 15.019 15.36 3.3 32.313 6.315 50.972 8.988l10.012-1.991c17.351 0 33.678-1.991 48.981-5.973s29.013-8.021 41.017-12.004c13.312-8.021 25.316-15.701 36.011-22.983 10.695-7.339 20.025-17.010 27.989-29.013 2.674-1.308 5.006-3.982 6.997-8.021s3.698-6.713 5.006-8.021c9.33-17.351 16.668-34.702 22.016-51.996 5.348-17.351 8.647-37.319 10.012-60.018 0-18.716-1.308-39.708-3.982-62.976-2.674-23.324-7.339-46.99-13.995-70.997-3.982-13.312-8.021-24.974-12.004-34.987s-9.33-20.992-15.986-32.996c-5.348-8.021-10.98-16.668-17.010-25.998-5.973-9.33-12.345-16.668-19.001-22.016 0-2.674-0.683-3.982-1.991-3.982s-2.674-0.683-3.982-1.991l-8.021-12.004c1.308-10.695 3.015-19.342 5.006-25.998 1.991-6.713 4.324-13.995 6.997-22.016 2.674-5.348 5.973-10.695 10.012-15.986 3.982-5.348 8.021-9.33 12.004-12.004 6.656-3.982 20.992-10.012 43.008-17.977s50.972-19.342 86.983-34.020c32.028-10.695 57.003-19.684 74.98-27.022s29.013-11.719 32.996-13.028c6.656-5.348 12.345-10.354 17.010-15.019 4.665-4.722 9.671-10.354 15.019-17.010 3.982-3.982 7.68-9.671 10.98-17.010 3.3-7.282 6.315-14.279 8.988-20.935z" data-tags="account" />
<glyph unicode="&#xe601;" d="M1024-38.016c-1.344-14.72-9.984-23.36-25.92-25.984h-155.648v76.032h-75.904v78.016h-75.776v76.032h-77.824v78.016h-67.84l-121.792 113.92c-47.936-17.344-84.48-25.984-109.76-25.984-83.84 0-157.632 30.656-221.504 91.968-46.592 48.064-75.84 105.344-87.808 171.968-15.936 105.344 13.312 196.032 87.808 272.064 61.184 59.968 134.4 90.624 219.52 91.968 86.464 0 161.6-30.656 225.472-91.968 21.248-21.376 39.168-46.080 53.888-74.048 50.56-93.312 53.248-188.032 8-283.968l357.248-355.968 49.792-52.032 18.048-140.032zM371.456 588.032c5.248 5.248 9.92 11.968 13.952 19.968 18.624 37.312 13.952 70.016-13.952 98.048-16 14.592-35.904 22.592-59.904 23.936-22.656 0-41.92-8-57.856-24-5.376-5.312-10.688-11.968-16-19.968-19.968-34.688-14.656-67.328 16-97.984 14.656-13.376 33.92-20.736 57.856-22.080 22.656 0 42.624 7.36 59.904 22.080z" data-tags="activation" />
<glyph unicode="&#xe602;" d="M832 384h-256v-256h-128v256h-256v128h256v256h128v-256h256z" data-tags="add" />
<glyph unicode="&#xe603;" d="M512 960c-282.752 0-512-229.248-512-512s229.248-512 512-512 512 229.248 512 512-229.248 512-512 512zM512 0c-247.040 0-448 200.96-448 448s200.96 448 448 448 448-200.96 448-448-200.96-448-448-448zM576 704h-128v-192h-192v-128h192v-192h128v192h192v128h-192z" data-tags="add-circle" />
<glyph unicode="&#xe604;" d="M512 960c-282.816 0-512-229.184-512-512 0-282.752 229.184-512 512-512 282.752 0 512 229.248 512 512 0 282.816-229.248 512-512 512zM832 384h-256v-256h-128v256h-256v128h256v256h128v-256h256v-128z" data-tags="add-circle-reverse" />
<glyph unicode="&#xe605;" d="M0 960v-1024h1024v1024h-1024zM783.552 267.008l-90.496-90.496-181.056 180.992-180.992-180.992-90.496 90.496 180.992 180.992-181.056 180.992 90.496 90.496 181.056-180.992 180.992 180.992 90.496-90.496-180.992-180.992 181.056-180.992z" data-tags="alert-error" />
<glyph unicode="&#xe606;" d="M0 960v-1024h1024v1024h-1024zM576 128h-128v384h128v-384zM576 640h-128v128h128v-128z" data-tags="alert-info-reverse" />
<glyph unicode="&#xe607;" d="M0 960v-1024h1024v1024h-1024zM421.504 199.040l-226.304 226.368 90.496 90.496 135.808-135.808 316.8 316.8 90.496-90.496-407.296-407.36z" data-tags="alert-success" />
<glyph unicode="&#xe608;" d="M0 960v-1024h1024v1024h-1024zM576 128h-128v128h128v-128zM566.4 358.464h-108.8l-9.6 249.536v160h128v-160l-9.6-249.536z" data-tags="alert-warning" />
<glyph unicode="&#xe609;" d="M741.12 768h-644.16c-44.288 0-96.96-46.592-96.96-90.816v-381.888c0-44.288 52.672-103.296 96.96-103.296h241.6l145.856-122.496 91.584-69.504v192h165.12c44.288 0 90.88 59.008 90.88 103.232v381.952c0 44.224-46.528 90.816-90.88 90.816zM943.424 960h-644.096c-44.352 0-107.328-36.224-107.328-80.512v-47.488h549.12c93.12 0 154.88-71.936 154.88-154.816v-293.184h47.424c44.352 0 80.576 5.248 80.576 49.472v446.016c0 44.288-36.224 80.512-80.576 80.512zM192 640h448v-64h-448v64zM192 512h448v-64h-448v64zM192 384h448v-64h-448v64z" data-tags="answers" />
<glyph unicode="&#xe60a;" d="M896 896v-896h-896v896h896zM832 704h-768v-640h768v640zM768 320h-640v320h640v-320zM128 128h192v89.984h-192v-89.984zM704 576h-512v-192h512v192zM384 128h192v89.984h-192v-89.984z" data-tags="app" />
<glyph unicode="&#xe60b;" d="M0-64h1024v1024h-1024v-1024zM497.984 226.752l-248.256 342.336c-6.336 8.704-2.688 15.808 8.064 15.808h508.416c10.752 0 14.336-7.040 7.936-15.744l-253.12-342.528c-6.336-8.64-16.768-8.576-23.040 0.128z" data-tags="arrow-boxed-down" />
<glyph unicode="&#xe60c;" d="M0 960v-1024h1024v1024h-1024zM290.752 462.016l342.336 248.256c8.768 6.336 15.872 2.688 15.872-8.064v-508.416c0-10.752-7.104-14.336-15.744-7.936l-342.592 253.056c-8.64 6.4-8.576 16.832 0.128 23.104z" data-tags="arrow-boxed-left" />
<glyph unicode="&#xe60d;" d="M0 960v-1024h1024v1024h-1024zM733.376 438.912l-342.528-253.12c-8.704-6.4-15.744-2.816-15.744 7.936v508.48c0 10.752 7.104 14.4 15.808 8.064l342.336-248.256c8.704-6.272 8.768-16.704 0.128-23.104z" data-tags="arrow-boxed-right" />
<glyph unicode="&#xe60e;" d="M0-64h1024v1024h-1024v-1024zM521.088 669.376l253.12-342.528c6.4-8.704 2.816-15.744-7.936-15.744h-508.48c-10.752 0-14.4 7.104-8.064 15.808l248.256 342.336c6.272 8.704 16.704 8.768 23.104 0.128z" data-tags="arrow-boxed-up" />
<glyph unicode="&#xe60f;" d="M766.272 630.336c10.752 0 14.336-7.040 7.936-15.744l-253.12-342.464c-6.4-8.64-16.768-8.64-23.104 0.128l-248.256 342.272c-6.272 8.704-2.688 15.808 8.064 15.808h508.48z" data-tags="arrow-down" />
<glyph unicode="&#xe610;" d="M694.4 193.728c0-10.752-7.104-14.336-15.744-7.936l-342.592 253.12c-8.64 6.4-8.576 16.768 0.128 23.104l342.336 248.256c8.768 6.336 15.872 2.688 15.872-8.064v-508.48z" data-tags="arrow-left" />
<glyph unicode="&#xe611;" d="M511.808 244.8c-9.728 0-17.792 8-17.792 8l-278.528 278.528c-12.416 12.416-12.416 32.832 0 45.248l22.656 22.656c12.48 12.416 32.832 12.416 45.248 0l228.608-228.608 228.288 228.288c12.416 12.416 32.896 12.416 45.248 0l22.656-22.656c12.48-12.416 12.48-32.832 0-45.248l-277.376-277.376c0 0-6.080-8.832-19.008-8.832z" data-tags="arrow-open-down" />
<glyph unicode="&#xe612;" d="M0-64h1024v1024h-1024v-1024zM511.808 244.8c-9.728 0-17.792 8-17.792 8l-278.528 278.528c-12.416 12.416-12.416 32.832 0 45.248l22.656 22.656c12.48 12.416 32.832 12.416 45.248 0l228.608-228.608 228.288 228.288c12.416 12.416 32.896 12.416 45.248 0l22.656-22.656c12.48-12.416 12.48-32.832 0-45.248l-277.376-277.376c0 0-6.080-8.832-19.008-8.832z" data-tags="arrow-open-down-reverse" />
<glyph unicode="&#xe613;" d="M308.8 448.128c0 9.792 8.064 17.856 8.064 17.856l49.792 49.856 228.672 228.672c12.416 12.416 32.896 12.416 45.248 0l22.656-22.656c12.48-12.416 12.48-32.832 0-45.248l-228.608-228.608 228.288-228.288c12.416-12.416 12.416-32.896 0-45.248l-22.72-22.656c-12.416-12.48-32.832-12.48-45.248 0l-277.312 277.376c0 0-8.832 6.080-8.832 18.944z" data-tags="arrow-open-left" />
<glyph unicode="&#xe614;" d="M0 960v-1024h1024v1024h-1024zM308.8 448.128c0 9.792 8.064 17.856 8.064 17.856l49.792 49.856 228.672 228.672c12.416 12.416 32.896 12.416 45.248 0l22.656-22.656c12.48-12.416 12.48-32.832 0-45.248l-228.608-228.608 228.288-228.288c12.416-12.416 12.416-32.896 0-45.248l-22.72-22.656c-12.416-12.48-32.832-12.48-45.248 0l-277.312 277.376c0 0-8.832 6.080-8.832 18.944z" data-tags="arrow-open-left-reverse" />
<glyph unicode="&#xe615;" d="M706.368 429.184l-277.376-277.312c-12.416-12.48-32.832-12.48-45.248 0l-22.656 22.656c-12.48 12.352-12.48 32.832 0 45.248l228.288 228.224-228.608 228.544c-12.416 12.416-12.416 32.832 0 45.248l22.592 22.656c12.416 12.416 32.832 12.416 45.248 0l278.528-278.528c0 0 8-8.064 8-17.856 0.064-12.8-8.768-18.88-8.768-18.88z" data-tags="arrow-open-right" />
<glyph unicode="&#xe616;" d="M0 960v-1024h1024v1024h-1024zM706.368 429.184l-277.376-277.312c-12.416-12.48-32.832-12.48-45.248 0l-22.656 22.656c-12.48 12.352-12.48 32.832 0 45.248l228.288 228.224-228.608 228.544c-12.416 12.416-12.416 32.832 0 45.248l22.592 22.656c12.416 12.416 32.832 12.416 45.248 0l278.528-278.528c0 0 8-8.064 8-17.856 0.064-12.8-8.768-18.88-8.768-18.88z" data-tags="arrow-open-right-reverse" />
<glyph unicode="&#xe617;" d="M530.816 642.368l49.152-49.088 228.224-228.288c12.48-12.416 12.48-32.832 0-45.248l-22.656-22.72c-12.352-12.416-32.832-12.416-45.248 0l-228.288 228.352-228.608-228.544c-12.416-12.48-32.768-12.48-45.248 0l-22.656 22.656c-12.416 12.352-12.416 32.832 0 45.248l278.528 278.464c0 0 8.064 8.064 17.792 8.064 12.928-0.064 19.008-8.896 19.008-8.896z" data-tags="arrow-open-up" />
<glyph unicode="&#xe618;" d="M0-64h1024v1024h-1024v-1024zM530.816 642.368l49.152-49.088 228.224-228.288c12.48-12.416 12.48-32.832 0-45.248l-22.656-22.72c-12.352-12.416-32.832-12.416-45.248 0l-228.288 228.352-228.608-228.544c-12.416-12.48-32.768-12.48-45.248 0l-22.656 22.656c-12.416 12.352-12.416 32.832 0 45.248l278.528 278.464c0 0 8.064 8.064 17.792 8.064 12.928-0.064 19.008-8.896 19.008-8.896z" data-tags="arrow-open-up-reverse" />
<glyph unicode="&#xe619;" d="M329.6 702.208c0 10.752 7.104 14.4 15.808 8.064l342.336-248.256c8.704-6.336 8.768-16.704 0.128-23.104l-342.528-253.12c-8.704-6.4-15.744-2.816-15.744 7.936v508.48z" data-tags="arrow-right" />
<glyph unicode="&#xe61a;" d="M257.792 256c-10.752 0-14.4 7.104-8.064 15.872l248.192 342.336c6.336 8.704 16.704 8.768 23.104 0.128l253.12-342.592c6.4-8.64 2.816-15.744-7.936-15.744h-508.416z" data-tags="arrow-up" />
<glyph unicode="&#xe61b;" d="M198.592-64c-46.72 1.664-89.984 21.568-129.792 59.712-50.176 51.904-71.872 105.536-64.896 160.96 6.912 44.928 30.336 88.256 70.080 129.728l389.312 392c86.528 83.072 158.336 94.272 215.424 33.728 57.088-58.88 44.992-129.792-36.352-212.864l-358.144-360.832-70.080 70.080 358.144 360.832c38.080 38.016 50.24 62.272 36.416 72.64-8.704 15.616-32.064 6.016-70.144-28.544-1.664-1.728-3.456-3.52-5.184-5.184l-389.312-391.936c-24.192-25.92-38.080-50.176-41.536-72.704 0-24.256 12.16-50.176 36.352-77.888 25.984-24.256 48.448-33.664 67.52-28.48 24.192 3.392 50.176 18.944 77.824 46.656l462.016 462.016c38.016 38.016 62.272 74.368 72.64 109.056 10.368 51.904-6.848 101.248-51.904 147.968-79.552 76.032-164.416 69.12-254.4-20.8l-428.224-428.288c-24.192-19.072-47.552-19.072-70.080 0-19.008 24.192-19.008 47.552 0 70.144l428.224 428.224c121.088 121.088 238.784 140.16 353.024 57.088 15.552-12.16 29.44-24.256 41.472-36.352 74.368-76.16 100.288-157.504 77.888-243.968-17.344-53.696-50.176-104.768-98.624-153.152-3.52-3.52-157.44-157.504-462.016-462.016-43.264-41.536-87.424-66.688-132.352-75.264-3.456 0-7.808-0.512-12.992-1.344-5.12-0.768-8.576-1.216-10.304-1.216z" data-tags="attachment" />
<glyph unicode="&#xe61c;" d="M832 224v-160h-640v288l-192-160v70.016l153.984 121.984-153.984 121.984v70.016l192-160v288h640v-160l192-160-192-160zM768 640h-512v-512h512v512zM512 192h-128v384h108.032c42.688 0 72.704-8.704 89.984-25.984 20.032-18.688 30.656-46.016 32-81.984 0-6.656-4.032-24-12.032-52.032-5.312-8-16-16.704-32-25.984 13.312-1.344 28.032-9.984 44.032-25.984 9.344-26.688 14.016-45.312 14.016-56 0-32-10.688-60.032-32-84.032-21.376-20.032-49.344-30.656-84.032-32zM436.032 416h64c25.344 0 41.984 6.656 49.984 20.032 9.344 9.344 14.016 22.016 14.016 38.016-1.344 17.28-8 29.952-20.032 37.952-9.344 8-26.688 11.968-51.968 11.968h-56v-107.968zM436.032 249.984h70.016c16 0 32.704 4.032 49.984 12.032 11.968 6.656 18.624 21.952 19.968 45.952 0 20.032-6.656 36.672-20.032 49.984-18.624 9.344-37.312 14.016-55.936 14.016h-64v-121.984zM832 473.984v-179.968l116.032 89.984-116.032 89.984z" data-tags="block" />
<glyph unicode="&#xe61d;" d="M704 896v-128h-192v128h-192v-128h-192v128h-128v-960h832v960h-128zM640 128h-448v64h448v-64zM640 320h-448v64h448v-64zM640 512h-448v64h448v-64zM176 960h96v-128h-96v128zM560 960h96v-128h-96v128z" data-tags="blogs" />
<glyph unicode="&#xe61e;" d="M897.344 475.968c-1.344-33.28 4.672-65.984 17.984-97.984 13.376-32 35.392-48 65.984-48v-57.984h-30.016l-22.016 12.032c-13.312 6.656-28.288 27.008-44.992 60.992-16.64 33.984-27.648 77.632-33.024 131.008h-84.032c0-70.656-4.608-132.672-14.016-185.984l76.032-60.032v-166.016l24-65.984v-62.016h-38.016l-38.016 94.016v168l-38.016 40c-30.656-128-87.296-207.296-169.984-238.016l-36.032 65.984-37.824-65.984c-89.344 33.344-148.672 112.704-177.984 238.016l-52.032-40v-168l-9.984-94.016h-66.048v57.984l24 68.032v166.016l89.984 57.984c-5.312 34.688-5.312 83.328 0 145.984 1.344 18.688 2.048 32.64 2.048 41.984h-84.032c-9.28-85.312-33.28-147.328-72-185.984l-27.968-20.032h-59.968v58.048c44.032 1.344 76.672 38.656 97.984 112l14.016 83.968h132.032c1.344 9.344 0.64 25.344-1.984 48-1.408 14.656-2.112 24.704-2.112 30.016l-215.936 222.016v9.984h54.016l174.016-176c5.248 29.312 7.936 45.312 7.936 48h425.984l6.016-48 179.968 176h24v-9.984l-200-220.032c0-5.312 1.344-16 4.032-32 2.688-21.312 4.032-36.672 4.032-46.016h134.016l-2.048-48zM337.344 755.968c16 65.344 31.296 106.688 46.016 124.032l-66.048 73.984v6.016h52.032l60.032-52.032c24 17.344 37.312 26.688 40 28.032l32-1.984h99.968l41.984-28.032 57.984 54.016h24v-8l-49.984-72c25.344-29.376 44.672-70.656 57.984-124.032h-395.968z" data-tags="bug-report" />
<glyph unicode="&#xe61f;" d="M912 768h-144v103.296c0 26.56-21.44 48-48 48h-96c-26.56 0-48-21.44-48-48v-103.296h-192v103.296c0 26.56-21.44 48-48 48h-96c-26.56 0-48-21.44-48-48v-103.296h-144c-26.432 0-48-21.568-48-48v-736c0-26.432 21.568-48 48-48h864c26.432 0 48 21.568 48 48v736c0 26.432-21.568 48-48 48zM640 835.776c0 8.832 7.168 16 16 16h32c8.832 0 16-7.168 16-16v-224c0-8.832-7.168-16-16-16h-32c-8.832 0-16 7.168-16 16v224zM256 835.776c0 8.832 7.168 16 16 16h32c8.832 0 16-7.168 16-16v-224c0-8.832-7.168-16-16-16h-32c-8.832 0-16 7.168-16 16v224zM896 0h-832v512h832v-512z" data-tags="calendar" />
<glyph unicode="&#xe620;" d="M741.056 460.288c0 148.992-162.304 269.76-362.496 269.76s-362.56-120.704-362.56-269.76c0-89.536 58.624-168.896 148.864-217.984-0.256-0.768-71.872-131.136-71.872-131.136s218.752 83.392 219.328 83.776c21.44-2.944 43.584-4.48 66.176-4.48 200.256 0.064 362.56 120.832 362.56 269.824zM1008 376c0 148.992-152.832 268.736-318.272 269.76 237.12-236.224-42.176-487.936-269.76-487.936 0 0 25.28-51.648 225.536-51.648 22.592 0 44.736 1.536 66.176 4.48 0.64-0.384 219.328-83.776 219.328-83.776s-71.616 130.304-71.872 131.136c90.24 49.088 148.864 128.448 148.864 217.984z" data-tags="chat" />
<glyph unicode="&#xe621;" d="M890.432 801.408l-534.272-534.272-222.592 222.592-133.568-133.568 356.16-356.16 667.84 667.84z" data-tags="check" />
<glyph unicode="&#xe622;" d="M518.912 704h-99.008l186.432-256-185.088-256h97.664l185.088 256zM263.040 704h-99.072l186.432-256-185.088-256h97.664l185.024 256z" data-tags="chevron" />
<glyph unicode="&#xe623;" d="M0.256 300.8c-7.125 155.221 144.896 259.669 260.053 210.176-9.173 119.936 73.088 194.688 186.24 212.523 97.749 15.445 180.053-37.973 223.147-127.616 95.573 116.523 314.368-9.941 224.341-159.531 161.237-0.981 207.701-311.893-67.968-319.019h-631.552c-107.307 0-194.261 98.133-194.261 183.467z" data-tags="cloud" />
<glyph unicode="&#xe624;" d="M782.016 249.344c-7.232 17.92-17.984 32.32-32.384 43.136-5.44 2.688-27.904 11.2-67.456 25.6-45.76 17.024-72.768 27.84-80.896 32.32-11.712 8.128-18.88 23.808-21.568 47.168l5.44 8.064c1.728 0.896 2.624 1.792 2.624 2.752 17.984 17.92 31.488 42.176 40.448 72.768 17.152 62.016 14.4 112.768-8.064 152.32-2.688 4.48-5.376 8.512-8.064 12.16-20.672 25.984-52.544 40.384-95.68 43.072h-6.72c-45.824-3.584-77.312-17.984-94.336-43.136-27.84-36.864-34.56-88.064-20.224-153.728 0.896-4.48 1.792-8.064 2.752-10.752 12.544-33.28 26.496-57.536 41.792-72.768 0.896-0.96 2.24-2.752 4.032-5.44s3.136-4.416 4.032-5.376c3.584-9.92-1.408-23.36-14.848-40.448-2.688-3.584-4.928-5.888-6.72-6.784-21.504-10.816-49.408-21.568-83.584-32.32-40.448-14.464-62.848-22.912-67.392-25.6-15.232-11.712-26.048-26.048-32.32-43.136-7.168-21.568-10.752-46.336-10.752-74.176v-4.032l4.032-2.752c27.776-26.816 119.872-40.256 276.16-40.256 158.208 0 250.304 12.992 276.352 39.040l4.032 4.032v4.032c-0.96 3.648-1.792 10.752-2.688 21.632-2.688 26.88-5.376 44.48-8 52.608zM248 332.544l2.432 1.408c4.608 2.752 10.112 5.888 58.24 23.232-0.576 0.32-1.6 0.768-2.048 1.024-9.728 6.592-15.68 19.776-17.92 39.104l4.48 6.784c1.536 0.704 2.24 1.472 2.24 2.24 14.912 14.848 26.176 35.008 33.6 60.352 14.144 51.52 11.904 93.632-6.72 126.464-2.304 3.776-4.608 7.104-6.848 10.112-17.152 21.632-43.584 33.536-79.36 35.776h-5.568c-38.144-2.944-64.192-14.912-78.4-35.776-23.104-30.656-28.736-73.152-16.832-127.552 0.704-3.776 1.536-6.784 2.304-9.024 10.432-27.648 21.952-47.744 34.688-60.352 0.768-0.768 1.856-2.24 3.328-4.48 1.536-2.24 2.688-3.776 3.392-4.48 2.944-8.256-1.088-19.392-12.352-33.536-2.24-3.008-4.032-4.8-5.568-5.568-17.856-9.024-41.024-17.92-69.376-26.88-33.536-11.904-52.16-19.008-55.936-21.248-12.672-9.728-21.632-21.632-26.816-35.84-6.016-17.92-8.96-38.4-8.96-61.568v-3.392l3.328-2.24c20.032-19.392 80.32-30.336 180.48-32.896 0.256 35.392 4.544 64.768 13.056 90.304 10.112 27.264 26.304 49.024 48.832 66.24l2.304 1.792zM1021.76 230.656c-2.176 22.336-4.416 36.928-6.656 43.648-6.016 14.912-14.976 26.816-26.88 35.84-4.48 2.24-23.040 9.344-55.872 21.248-38.080 14.144-60.48 23.104-67.136 26.88-9.728 6.592-15.744 19.776-17.92 39.104l4.416 6.784c1.536 0.704 2.24 1.472 2.24 2.24 14.848 14.848 26.112 35.008 33.6 60.352 14.144 51.52 11.904 93.632-6.848 126.464-2.176 3.712-4.416 7.040-6.656 10.112-17.152 21.632-43.648 33.536-79.36 35.776h-5.632c-38.080-2.944-64.128-14.912-78.336-35.776-23.104-30.656-28.736-73.152-16.832-127.552 0.768-3.776 1.472-6.784 2.24-9.024 10.432-27.648 22.016-47.744 34.688-60.352 0.768-0.768 1.856-2.24 3.328-4.48 1.536-2.24 2.624-3.776 3.392-4.48 3.008-8.256-1.088-19.392-12.288-33.536-2.24-3.008-4.032-4.8-5.568-5.568-0.96-0.448-2.112-0.896-3.008-1.344 41.216-15.104 49.856-18.88 54.4-21.184l4.032-1.92 3.648-2.688c21.376-16.128 37.632-37.568 48.128-63.744 3.968-11.52 7.232-25.536 11.392-65.728 0.64-7.808 1.088-12.544 1.6-15.36l0.96-4.672 0.384-6.464v-0.896c100.864 2.496 160.832 13.056 179.584 31.808l3.2 3.2v3.392c-0.704 3.008-1.472 8.896-2.24 17.92z" data-tags="community" />
<glyph unicode="&#xe625;" d="M921.6 960h-819.2c-56.384 0-102.4-46.016-102.4-102.4v-563.2c0-56.32 46.016-102.4 102.4-102.4h281.6v-256l224 256h313.6c56.32 0 102.4 47.488 102.4 103.808v561.792c0 56.384-46.080 102.4-102.4 102.4zM576 298.688h-128v96h128v-96zM701.568 607.104c-13.76-22.080-41.6-50.688-85.184-87.424-25.6-21.696-33.408-33.152-35.712-38.144-1.536-3.136-3.52-9.856-4.672-23.744-0.64-7.232-0.128-19.52 0-31.104h-128v32c0 64 5.696 56.512 16.768 78.528 11.136 21.952 32.064 45.44 64.064 71.872 38.784 31.808 48.256 42.432 50.56 45.44 6.784 8.832 9.984 18.56 9.984 29.44 0 15.232-5.952 28.096-18.112 39.104-12.8 11.584-30.016 17.28-52.672 17.28-21.952 0-39.552-6.080-53.952-18.368-14.464-12.544-24.768-32.512-30.4-59.264l-3.328-15.36-15.552 1.984-109.632 13.76 1.024 16c2.944 48.448 23.488 90.048 60.992 123.712 37.44 33.536 86.656 50.496 146.496 50.496 62.656 0 113.536-17.152 151.104-51.008 38.4-34.304 57.728-75.136 57.728-121.28 0.064-25.984-7.168-50.816-21.504-73.92z" data-tags="contactus" />
<glyph unicode="&#xe626;" d="M960 640v-576h64v-64h-448v192h-128v-192h-448v64h64v576h-64v64h320v64h384v-64h320v-64h-64zM256 576h-64v-128h64v128zM256 384h-64v-128h64v128zM256 192h-64v-128h64v128zM448 576h-64v-128h64v128zM448 384h-64v-128h64v128zM640 576h-64v-128h64v128zM640 384h-64v-128h64v128zM832 576h-64v-128h64v128zM832 384h-64v-128h64v128zM832 192h-64v-128h64v128z" data-tags="corporation" />
<glyph unicode="&#xe627;" d="M1024 960v-960h-1024v960h1024zM320 512h-256v-192h256v192zM320 256h-256v-192h256v192zM640 512h-256v-192h256v192zM640 256h-256v-192h256v192zM960 512h-256v-192h256v192zM320 768h-256v-192h256v192zM640 768h-256v-192h256v192zM960 768h-256v-192h256v192zM960 256h-256v-192h256v192z" data-tags="data" />
<glyph unicode="&#xe628;" d="M816.96 783.104c8.256-8.32 15.040-24.704 15.040-36.416v-789.312c0-11.84-9.536-21.376-21.312-21.376h-789.376c-11.712 0-21.312 9.536-21.312 21.312v981.376c0 11.712 9.6 21.312 21.312 21.312l597.312-0.064c11.776 0 28.096-6.784 36.352-15.040l161.984-161.792zM597.312 704c-11.776 0-21.312 9.6-21.312 21.312v149.312c0 11.776-9.536 21.376-21.312 21.376h-469.312c-11.776 0-21.376-9.6-21.376-21.376v-853.312c0-11.776 9.6-21.312 21.376-21.312h661.312c11.776 0 21.312 9.536 21.312 21.312v661.376c0 11.712-9.536 21.312-21.312 21.312h-149.376zM192 661.312c0-11.712 9.6-21.312 21.312-21.312h277.312c11.776 0 21.376 9.6 21.376 21.312v21.376c0 11.712-9.6 21.312-21.312 21.312l-277.312-0.064c-11.776 0-21.312-9.6-21.376-21.312v-21.312zM192 554.688c0 11.712 9.6 21.312 21.312 21.312h405.312c11.84 0 21.376-9.6 21.376-21.312v-21.312c0-11.776-9.536-21.376-21.312-21.376h-405.376c-11.712 0-21.312 9.6-21.312 21.312v21.376zM192 405.312c0-11.712 9.6-21.312 21.312-21.312h405.312c11.84 0 21.376 9.6 21.376 21.312v21.312c0 11.712-9.536 21.376-21.312 21.376h-405.312c-11.712 0-21.312-9.664-21.376-21.376v-21.312zM192 277.312c0-11.776 9.6-21.312 21.312-21.312h405.312c11.84 0 21.376 9.536 21.376 21.312v21.312c0 11.712-9.536 21.312-21.312 21.312h-405.312c-11.776 0-21.312-9.6-21.376-21.312v-21.312zM192.064 149.312c0-11.776 9.6-21.312 21.312-21.312h149.248c11.776 0 21.376 9.536 21.376 21.312v21.376c0 11.776-9.6 21.312-21.312 21.312h-149.312c-11.776 0-21.312-9.536-21.312-21.312v-21.376z" data-tags="document" />
<glyph unicode="&#xe629;" d="M627.2 960c-63.36 0-115.2-65.408-115.2-128 0 62.592-51.84 128-115.2 128h-396.8v-896h396.8c63.36 0 115.2-44.096 115.2-106.688 0 62.592 51.84 106.688 115.2 106.688h396.8v896h-396.8zM384 277.312h-256v42.688h256v-42.688zM384 405.312h-256v42.688h256v-42.688zM384 533.312h-256v42.688h256v-42.688zM384 661.312h-256v42.688h256v-42.688zM896 277.312h-256v42.688h256v-42.688zM896 405.312h-256v42.688h256v-42.688zM896 533.312h-256v42.688h256v-42.688zM896 661.312h-256v42.688h256v-42.688z" data-tags="documentation" />
<glyph unicode="&#xe62a;" d="M768 512v-192h192l-448-384-448 384h192v192h512zM256 960h512v-128h-512v128zM256 768h512v-192h-512v192z" data-tags="download" />
<glyph unicode="&#xe62b;" d="M832 801.984c21.312-22.656 37.312-44.672 48-65.984 10.688-24 16-40 16-48v-17.984l-257.984-258.048-297.984-294.016-244.032-53.952 52.032 246.016 553.984 553.984c38.656 6.656 81.984-14.016 129.984-62.016zM350.016 171.968c-1.344 30.656-18.688 62.656-52.032 96-13.312 12.032-28.672 24-46.016 36.032-16 8-28.032 12.032-36.032 12.032l-14.016 1.984-24-24-17.92-82.048c14.656-8 30.656-19.328 48-33.984 17.344-19.968 29.312-36.672 36.032-49.984l81.984 17.984 24 25.984z" data-tags="edit" />
<glyph unicode="&#xe62c;" d="M976 704h-928c-26.432 0-48-21.568-48-48v-544c0-26.432 21.568-48 48-48h928c26.432 0 48 21.568 48 48v544c0 26.432-21.568 48-48 48zM917.312 640l-405.312-304-405.312 304h810.624zM64 592l277.312-208-277.312-208v416zM106.688 128l288 216 117.312-88 117.312 88 288-216h-810.624zM960 176l-277.312 208 277.312 208v-416z" data-tags="email" />
<glyph unicode="&#xe62d;" d="M512 960c-282.752 0-512-229.216-512-512 0-282.752 229.248-512 512-512 282.784 0 512 229.248 512 512 0 282.784-229.216 512-512 512zM749.728 608l-237.728-194.88-0.736 0.288-236.992 194.592h475.456zM256 579.040l170.368-143.2-170.368-123.936v267.136zM279.872 288l176.704 123.008 55.296-45.056 54.816 45.056 175.328-123.008h-462.144zM768 309.728l-171.072 126.112 171.072 143.2v-269.312z" data-tags="email-circle" />
<glyph unicode="&#xe62e;" d="M729.344 894.016c82.688-62.656 124.032-145.344 124.032-248 0-48-13.312-96.64-40-145.984l-36.032-57.984c-33.344-33.344-50.624-82.688-52.032-148.032v-22.016c0-10.688-3.328-22.016-9.984-33.984-18.624-30.72-49.984-46.016-94.016-46.016h-173.952c-13.312 0-26.688 1.984-40 6.016-44.032 13.312-65.984 38.016-65.984 73.984v22.016c-1.344 61.312-18.048 110.656-50.048 147.968l-19.968 25.984c-13.376 18.688-26.368 45.056-39.040 79.040s-19.008 67.008-19.008 99.008c0 70.656 22.656 134.656 68.032 192 64 81.344 147.968 121.984 251.968 121.984 73.344 0 138.688-22.016 196.032-65.984zM699.328 120v-9.984c0-4.032-1.344-9.344-4.032-16-8-20.032-17.28-30.016-27.968-30.016h-265.984c-2.688 0-6.016 1.344-9.984 4.032-16 10.688-24 24.704-24 41.984v9.984c1.344 10.688 12.672 17.344 33.984 20.032h265.984c19.968-0.064 30.656-6.72 32-20.032zM675.328-8v-9.984c0-4.032-1.344-9.344-4.032-16-9.28-20.032-18.624-30.016-27.968-30.016h-219.968c-2.688 0-5.312 1.344-8 4.032-14.656 12.032-22.016 25.984-22.016 41.984v9.984c1.344 10.688 11.328 17.344 30.016 20.032h219.968c19.968-0.064 30.656-6.72 32-20.032z" data-tags="examples" />
<glyph unicode="&#xe62f;" d="M384 704h512v-64h-512v64zM384 448h512v-64h-512v64zM384 192h512v-64h-512v64zM128 768h128v-128h-128v128zM128 512h128v-128h-128v128zM128 256h128v-128h-128v128z" data-tags="features" />
<glyph unicode="&#xe630;" d="M857.6 896h-755.2c-56.384 0-102.4-46.016-102.4-102.4v-499.2c0-56.32 46.016-102.4 102.4-102.4h217.6v-256l224 256h313.6c56.32 0 102.4 47.488 102.4 103.808v497.792c0 56.384-46.080 102.4-102.4 102.4zM640 512h-128v-128c0-17.6-14.4-32-32-32s-32 14.4-32 32v128h-128c-17.664 0-32 14.336-32 32s14.336 32 32 32h128v128c0 17.664 14.4 32 32 32s32-14.336 32-32v-128h128c17.664 0 32-14.336 32-32s-14.336-32-32-32z" data-tags="feedback" />
<glyph unicode="&#xe631;" d="M1024 554.688l-256 213.312v-128h-416v-192h416v-128zM256 512l-256-213.312 256-234.688v128h416v192h-416z" data-tags="fileexchange" />
<glyph unicode="&#xe632;" d="M816.96 783.104c8.256-8.32 15.040-24.704 15.040-36.416v-789.312c0-11.84-9.536-21.376-21.312-21.376h-789.376c-11.712 0-21.312 9.536-21.312 21.312v981.376c0 11.712 9.6 21.312 21.312 21.312l597.312-0.064c11.776 0 28.096-6.784 36.352-15.040l161.984-161.792zM597.312 704c-11.776 0-21.312 9.6-21.312 21.312v149.312c0 11.776-9.536 21.376-21.312 21.376h-469.312c-11.776 0-21.376-9.6-21.376-21.376v-853.312c0-11.776 9.6-21.312 21.376-21.312h661.312c11.776 0 21.312 9.536 21.312 21.312v661.376c0 11.712-9.536 21.312-21.312 21.312h-149.376zM180.288 91.52v0c-8.704 0-17.024 2.816-24.128 8.128-25.984 19.52-29.44 41.152-27.84 55.936 4.544 40.64 54.784 83.136 149.376 126.464 37.504 82.24 73.216 183.616 94.528 268.288-24.896 54.208-49.088 124.544-31.424 165.824 6.144 14.464 17.024 24.64 31.424 29.44 5.696 1.92 11.264 2.88 16.576 2.88 12.608 0 23.808-5.504 31.68-15.488 7.36-9.408 29.568-37.632-3.84-178.112 33.664-69.44 81.28-140.224 126.976-188.672 32.64 5.824 60.8 8.832 83.712 8.832 39.104 0 62.784-9.088 72.448-27.84 8-15.552 4.736-33.664-9.728-53.888-13.888-19.456-33.024-29.76-55.424-29.76-30.336 0-65.664 19.2-105.088 57.024-70.784-14.784-153.472-41.216-220.288-70.4-20.864-44.288-40.832-79.936-59.456-106.112-25.6-35.84-47.68-52.544-69.504-52.544zM246.72 219.392c-53.312-29.952-75.072-54.592-76.608-68.48-0.256-2.304-0.96-8.32 10.752-17.28 3.712 1.216 25.408 11.136 65.856 85.76zM582.976 329.792c20.352-15.616 38.336-24.192 51.584-24.192 5.824 0 13.568 1.344 21.248 12.16 3.712 5.184 5.184 8.576 5.76 10.368-3.072 1.6-12.032 4.992-34.24 4.992-12.608-0.064-27.584-1.216-44.352-3.328zM400.64 494.528c-17.856-61.76-41.408-128.384-66.752-188.736 52.16 20.224 108.864 37.888 162.112 50.368-33.728 39.168-67.328 88-95.36 138.368zM387.904 706.304c-0.576-0.064-1.344-0.256-2.432-0.64-2.432-0.768-4.416-2.112-6.080-6.016-6.4-15.040-1.344-43.52 8.448-74.176 8.192 52.8 3.84 75.2 0.064 80.832z" data-tags="file-pdf" />
<glyph unicode="&#xe633;" d="M816.96 783.104l-161.984 161.792c-8.256 8.256-24.576 15.040-36.352 15.040l-597.312 0.064c-11.712 0-21.312-9.6-21.312-21.312v-981.376c0-11.776 9.6-21.312 21.312-21.312h789.376c11.776 0 21.312 9.536 21.312 21.376v789.312c0 11.712-6.784 28.096-15.040 36.416zM768 21.312c0-11.776-9.536-21.312-21.312-21.312h-661.312c-11.776 0-21.376 9.536-21.376 21.312v853.312c0 11.776 9.6 21.376 21.376 21.376h170.624v-64h64v64h234.688c11.776 0 21.312-9.6 21.312-21.376v-149.312c0-11.712 9.536-21.312 21.312-21.312h149.376c11.776 0 21.312-9.6 21.312-21.312v-661.376zM320 832h64v-64h-64v64zM256 768h64v-64h-64v64zM320 704h64v-64h-64v64zM256 640h64v-64h-64v64zM320 576h64v-64h-64v64zM256 512h64v-64h-64v64zM320 448h64v-64h-64v64zM256 320l-64-82.304v-109.696h256v128l-64 64h-64v64h-64v-64zM384 256v-64h-128v64h128z" data-tags="file-zip" />
<glyph unicode="&#xe634;" d="M946.816 896h-869.632c-14.080 0-17.472-8.128-7.488-18.048l339.968-338.688v-322.304c0-14.080 8.128-33.664 18.112-43.52l168.448-167.808c9.984-9.92 18.112-6.528 18.112 7.488v526.208l339.904 338.624c9.984 9.92 6.592 18.048-7.424 18.048z" data-tags="filter" />
<glyph unicode="&#xe635;" d="M562.56 669.568h-132.48c7.296 39.040 14.592 73.344 21.824 102.208 19.648 78.592 45.568 120.064 74.944 120.064 22.912 0 49.152-12.032 78.144-35.904 7.488-5.76 18.56-6.208 33.472-1.28l3.264 1.984c18.944 18.944 28.096 35.776 28.096 51.392 0 4.096-1.536 9.28-4.928 16-13.504 23.872-38.656 35.968-74.944 35.968-56-1.408-113.216-30.144-170.048-85.504-38.336-39.552-70.4-108.48-95.424-204.928h-65.856l-44.672-37.568 10.56-24.576h84.864c-3.712-22.72-16.512-97.28-56.128-319.616l0.192-2.304c-26.048-136.576-50.944-223.232-72.576-256.192-11.776-10.56-27.328-16.448-45.824-17.536-25.664 0-49.28 8.064-70.912 24.448-9.28 5.504-18.496 6.016-28.992-0.448-21.76-15.936-33.664-33.28-35.136-52.16 0-5.632 2.24-12.032 7.552-20.864 13.12-17.664 31.104-26.752 53.568-26.752 5.696 0 11.776 0.576 16.512 1.6 44.352 0 88.96 22.144 132.352 65.472 65.6 60.224 115.776 168.064 148.864 320.448 21.888 98.624 40.896 194.24 56.384 284.352l110.336 7.68 36.992 54.016zM926.528 595.52c5.824 0 12.608-3.328 19.84-9.408 5.248-5.248 12.736-8.64 23.744-10.368 3.584 0 7.616 0.768 12.096 2.304 27.328 7.552 41.792 25.408 41.792 51.52 0 3.968-1.024 7.872-2.304 10.176-7.552 27.2-27.456 41.664-58.176 41.664-0.064 0-0.128 0-0.128 0-42.048-4.096-102.912-56.64-185.92-160.576l-13.056 42.112c-6.72 21.184-12.736 38.080-17.92 49.792-17.344 46.208-37.376 68.672-61.696 68.672-33.088-1.408-78.4-37.312-138.56-109.696l-4.992-5.888 37.376-37.376 5.952 6.592c36.352 40.896 54.336 51.712 62.528 54.144 2.88-1.92 12.352-11.456 30.208-57.408l38.016-104.384c-90.752-119.232-130.88-148.224-148.544-150.976-6.144 1.344-12.928 5.248-20.032 11.392-7.936 7.872-15.808 12.48-25.664 14.272-5.376 0-11.328-1.6-17.792-4.992-22.592-12.032-34.112-29.824-34.112-53.12 1.408-35.904 21.184-56.384 57.152-59.392h0.704c4.544 0 10.304 0.704 17.6 2.112 44.48 9.344 104.832 71.424 184.192 189.44l31.936-85.632c26.496-64.256 53.376-96.896 83.008-100.032 49.536 0 99.712 38.72 153.344 118.336l4.032 6.080-31.488 28.224-5.568-6.272c-42.432-46.976-64.832-58.88-74.304-60.416-6.592 0.448-24.768 10.048-50.176 89.728l-42.048 99.072c12.992 24.512 35.136 51.84 65.92 81.408 40.896 41.088 57.664 48.32 63.040 48.896z" data-tags="function" />
<glyph unicode="&#xe636;" d="M512 905.102c62.692 0 121.344-11.719 176.014-34.987 54.67-23.324 102.002-55.694 141.995-96.996 41.358-39.993 73.671-87.324 96.996-141.995 23.324-54.727 34.987-113.323 34.987-176.014s-11.662-121.344-34.987-176.014c-23.324-54.67-55.694-102.002-96.996-141.995-39.993-41.358-87.324-73.671-141.995-96.996s-113.323-34.987-176.014-34.987-121.344 11.662-176.014 34.987c-54.67 23.324-102.002 55.694-141.995 96.996-41.358 39.993-73.671 87.324-96.996 141.995s-34.987 113.323-34.987 176.014c0 62.692 11.662 121.287 34.987 176.014 23.324 54.67 55.694 102.002 96.996 141.995 39.993 41.301 87.324 73.671 141.995 96.996s113.323 34.987 176.014 34.987zM330.012 107.122c1.308-1.308 3.015-2.674 5.006-3.982s4.324-1.991 6.997-1.991h1.991l3.982 1.991c0 1.308 0 2.674 0 3.982v5.973l1.991 1.991c1.308 0 3.356 0 5.973 0h11.946c0 1.308 1.308 2.674 3.982 3.982h1.991c0 1.308 0.683 2.332 1.991 3.015s1.991 1.65 1.991 3.015h2.162c0 1.308 0.341 2.674 1.024 3.982s0.341 3.3-1.024 5.973l-1.991 2.048v1.991l-2.048 1.991c1.308 0 2.332 0 3.015 0s1.65 0 3.015 0 1.991 0.284 1.991 1.024c0 0.683 0.683 1.024 1.991 1.024l3.982 3.982c1.308 1.308 2.332 3.015 3.015 5.006s1.65 3.641 3.015 5.006c1.308 1.308 2.332 2.332 3.015 3.015s1.65 1.65 3.015 3.015l1.991 1.991c0 1.308 0.683 2.674 1.991 3.982h1.991l1.991 1.991c1.308 0 3.015 0.683 5.006 1.991s3.641 3.3 5.006 5.973c0 1.308 0 2.674 0 3.982s0 3.015 0 5.006 0.683 4.324 1.991 6.997v1.991c0 1.308 0.683 2.674 1.991 3.982s2.674 2.674 3.982 3.982l1.991 1.991h1.991c1.308 1.308 2.674 1.991 3.982 1.991l3.982 3.982h2.105l1.991 1.991h1.991c1.308 1.308 2.332 2.332 3.015 3.015s1.65 1.024 3.015 1.024c0 1.308 0.341 2.332 1.024 3.015s1.024 1.65 1.024 3.015c0 1.308 0.341 2.332 1.024 3.015s1.65 1.65 3.015 3.015l3.982 3.982 1.991 3.982v1.991c1.308 1.308 1.991 2.674 1.991 3.982 0 2.674 0 4.665 0 5.973s0 2.674 0 3.982v2.162c0 1.308 0.341 2.674 1.024 3.982s1.024 2.674 1.024 3.982c0 1.308-0.683 2.674-1.991 3.982 0 1.308 0.683 2.674 1.991 3.982v1.991l1.991 1.991c1.308 1.308 2.332 2.332 3.015 3.015s1.024 1.65 1.024 3.015h1.991c0 1.308 0.683 1.991 1.991 1.991v1.991l3.982 3.982c1.308 0 2.332 0.284 3.015 1.024 0.683 0.683 1.024 1.65 1.024 3.015 1.308 2.674 1.991 5.006 1.991 6.997s0 3.641 0 5.006v5.973c0 1.308 0 2.332 0 3.015s-0.683 1.65-1.991 3.015c0 1.308-0.341 1.991-1.024 1.991s-1.65 0-3.015 0c-1.308 1.308-2.674 1.991-3.982 1.991s-2.674 0-3.982 0v1.991h-2.162c0 1.308-0.683 1.991-1.991 1.991 0 1.308-0.683 2.674-1.991 3.982s-2.674 1.991-3.982 1.991c-1.308 1.308-3.015 1.991-5.006 1.991s-3.641-0.683-5.006-1.991c-1.308 0-2.674 0-3.982 0h-4.039c-1.308 0-2.674 0.284-3.982 1.024-1.308 0.683-2.674 1.024-3.982 1.024 0 1.308-0.341 2.332-1.024 3.015s-1.65 1.024-3.015 1.024h-3.982c-3.982 1.308-6.656 1.991-8.021 1.991h-1.991c-1.308 1.308-2.332 1.991-3.015 1.991s-1.65 0-3.015 0h-1.991c-1.308 0-1.991-0.341-1.991-1.024s-0.683-1.024-1.991-1.024v1.991h-1.991l-1.991 1.991c-1.308 0-2.674 0-3.982 0v1.991l1.991 3.982-1.991 3.982c0 1.308-0.683 2.674-1.991 3.982v0l-3.982 5.973c0 1.308-0.341 2.332-1.024 3.015s-1.65 1.024-3.015 1.024v1.991h-2.048c-1.308 1.308-2.332 2.332-3.015 3.015s-1.65 1.65-3.015 3.015c-1.308 0-2.674 0-3.982 0h-3.982c-1.308 1.308-3.982 2.674-8.021 3.982l-1.991 1.991h-5.973l-3.982 1.991c0 1.308-0.683 2.674-1.991 3.982s-2.674 1.991-3.982 1.991-2.674 0-3.982 0h-2.048v2.162c0 1.308-0.341 2.332-1.024 3.015s-1.65 1.024-3.015 1.024c0 1.308-1.308 1.991-3.982 1.991h-1.991l-1.991 1.991c0 1.308-0.341 2.332-1.024 3.015-0.683 0.626-1.65 0.967-3.015 0.967-2.674 0-4.665-0.683-5.973-1.991s-2.674-2.674-3.982-3.982c0-1.308-0.683-1.991-1.991-1.991l-8.021 3.982h-1.991c-1.308 0-2.332 0-3.015 0s-1.65-0.683-3.015-1.991v1.991l-3.982 1.991c0 1.308-0.341 1.991-1.024 1.991s-1.65 0-3.015 0-3.3-0.683-5.973-1.991l-1.991-3.982v1.991c-1.308 1.308-2.332 2.276-3.015 3.015-0.626 0.626-1.65 0.967-2.958 0.967h-2.048c-1.308 0-2.674-0.683-3.982-1.991l-5.973-3.982c-1.308-1.308-2.674-2.332-3.982-3.015s-2.674-2.332-3.982-5.006l-2.048-1.991c-1.308 1.308-3.356 2.674-5.973 3.982h-8.021l-3.982-1.991h-2.048l-3.982-1.991h-1.991l-1.991-1.991c0 1.308-0.683 1.991-1.991 1.991 0 1.308-0.341 2.332-1.024 3.015s-1.65 1.024-3.015 1.024v1.991h-1.991v5.973c0 1.308 0 3.3 0 5.973v1.991h1.991c0 1.308 0 2.674 0 3.982 1.308 1.308 1.65 2.674 1.024 3.982-0.683 1.308-1.024 2.674-1.024 3.982-1.308 1.308-2.674 2.674-3.982 3.982-1.365 1.422-2.674 2.105-3.982 2.105h-4.039c-1.308 1.308-2.674 1.991-3.982 1.991h-3.982l-2.048-1.991h-1.991v-1.991h-1.991v1.991c1.308 0 1.991 0.683 1.991 1.991 1.365 1.308 1.991 3.3 1.991 5.973s0 4.665 0 5.973v6.030l1.991 1.991c0 1.308 0 2.674 0 3.982v2.048l-1.991 3.982c-1.308 0-2.332 0.284-3.015 1.024-0.626 0.683-2.276 0.967-4.949 0.967l-3.982-1.991c-2.674 0-5.006-1.024-6.997-3.015s-3.015-4.324-3.015-6.94v-3.982c-1.308 0-1.991-0.683-1.991-1.991-1.308 0-2.674-0.683-3.982-1.991l-7.964-3.982c-1.308 0-2.674 0.284-3.982 1.024-1.422 0.569-2.788 1.536-4.096 2.901l-1.991 1.991c-1.308 1.308-2.674 1.991-3.982 1.991 0 1.308-0.683 1.991-1.991 1.991-1.365 1.308-2.389 3.698-3.015 6.997-0.683 3.356-1.024 6.315-1.024 9.045 0 1.308 0 2.332 0 3.015s0 1.65 0 3.015l1.991 1.991v3.982l-3.982 3.982c0 1.308 0.683 1.991 1.991 1.991 0 1.308 0.683 1.991 1.991 1.991l5.973 5.973 5.973 3.982 3.982 1.991c1.308 0 2.674 0 3.982 0s2.674 0 3.982 0v-1.991c1.308-1.308 1.991-2.332 1.991-3.015s0.683-1.707 1.991-3.015h3.982c2.674 0 5.006 0.284 6.997 1.024 1.991 0.683 3.641 2.332 5.006 5.006 0 1.308 0.341 2.674 1.024 3.982s0.341 2.674-1.024 3.982h4.153c2.674 0 3.982-0.683 3.982-1.991 1.308 0 2.332-0.341 3.015-1.024s1.024-1.707 1.024-3.015h1.991c1.308 0 2.674 0.683 3.982 1.991l3.982 1.991c0-1.308 0-2.674 0-3.982v-3.982c0-2.674 1.308-5.006 3.982-6.997s4.665-3.698 5.973-5.006l5.973-3.982c0-1.308 0.341-1.991 1.024-1.991s1.65 0 3.015 0l1.991-1.991h1.991l3.982 1.991v2.105c1.308 0 1.991 1.308 1.991 3.982 0 1.308 0 2.674 0 3.982v3.982c0 1.308-0.341 2.332-1.024 3.015-0.569 0.683-0.853 1.707-0.853 3.015s-0.683 1.991-1.991 1.991c-1.365 2.674-2.048 4.324-2.048 5.006s0 1.65 0 3.015c0 1.308 0 2.674 0 3.982-1.308 1.308-2.674 2.674-3.982 3.982 1.308 1.308 1.991 2.674 1.991 3.982v2.048c1.365 1.308 2.332 2.276 3.015 3.015 0.683 0.626 1.65 0.967 3.015 0.967 0 1.308 0.341 2.332 1.024 3.015 0.626 0.683 1.593 0.967 2.958 0.967h-1.991l1.991 1.991c1.308 0 1.991 0.683 1.991 1.991 1.308 0 2.332 0.284 3.015 1.024 0.683 0.683 1.65 1.024 3.015 1.024v1.991c0 1.308 0.341 2.674 1.024 3.982 0.626 1.308 0.967 2.674 0.967 4.039 0 1.308 0 3.015 0 5.006s0 4.324 0 6.997h1.991c1.308 1.308 2.332 3.015 3.015 5.006s1.65 3.641 2.958 4.949c0 1.308 0 2.674 0 3.982 1.308 0 1.991 0.683 1.991 1.991h11.947c1.308 0 2.674 0.284 3.982 1.024 1.308 0.683 2.674 2.332 3.982 5.006v8.021l1.991 3.982c1.308 1.308 2.332 1.991 3.015 1.991s1.65 0.683 3.015 1.991c1.308 1.308 2.674 2.674 3.982 3.982 1.308 0 1.991 0.683 1.991 1.991h1.991v-3.982h-1.877l1.991-3.982c0-1.308 0.341-2.332 1.024-3.015s1.65-1.024 3.015-1.024h13.995c2.674 1.365 4.665 2.389 5.973 3.072 1.365 0.683 2.674 1.65 3.982 3.015 2.674 1.308 4.324 3.015 5.006 5.006s1.024 4.324 1.024 6.997l1.991 5.973-1.991 1.991c0 1.308-0.683 2.332-1.991 3.015-1.365 0.683-2.674 0.967-4.039 0.967h-1.991c-1.308 1.308-2.674 1.991-3.982 1.991l-1.991 2.048-6.030-1.991c-1.308 1.308-2.674 1.991-3.982 1.991 0 1.308 0.341 2.674 1.024 3.982s0.341 3.3-1.024 5.973v2.048h1.991c1.308 0 2.674 0 3.982 0v1.991h24.007c0 1.308 0.683 1.991 1.991 1.991v-1.991c-1.308 0-1.991-0.683-1.991-1.991-1.308-1.365-1.991-2.731-1.991-4.039s0-2.674 0-3.982c1.308-1.308 2.674-2.674 3.982-3.982 1.365-1.365 2.674-1.991 4.039-1.991h13.995v-1.991c1.308 0 2.332-0.341 3.015-1.024s1.65-1.024 3.015-1.024h8.021c1.308 0 1.991 0.284 1.991 1.024 0 0.683 0.683 1.024 1.991 1.024l1.991 1.991c1.308 2.674 1.308 5.689 0 8.988s-2.674 5.689-3.982 6.997h-2.048c0 1.308-0.341 1.991-1.024 1.991s-1.65 0-3.015 0v1.991h-1.934v1.991h-2.048v2.048c-1.308 0-2.332 0-3.015 0s-1.65 0-3.015 0h-1.934l1.991 1.991c0 1.308 0 2.674 0 3.982v1.991c0 1.308-0.683 2.674-1.991 3.982 0 1.308 0 2.332 0 3.015s0 1.65 0 3.015c1.308 2.674 1.65 5.006 1.024 6.997s-1.707 3.641-3.015 5.006c0 1.308-0.341 2.332-1.024 3.015-0.683 0.626-1.65 0.967-3.015 0.967h-7.964c-1.365 1.308-2.674 1.991-4.039 1.991-1.308 1.308-2.674 2.674-3.982 3.982s-2.674 1.991-3.982 1.991c-1.365 1.365-2.674 2.048-4.039 2.048 0 2.674 0 4.665 0 5.973s-0.683 3.3-1.991 5.973l-1.991 2.048c0 1.308-0.683 1.991-1.991 1.991v3.982c-1.308 0-1.991 0.683-1.991 1.991s0 2.674 0 3.982l-3.982 4.039c0 1.308-0.341 1.991-1.024 1.991s-2.332 0.683-5.006 2.048h-5.973l-3.982-1.991-1.991-3.982c0-1.308-0.341-2.332-1.024-3.015-0.683-0.74-1.707-1.707-3.015-3.015 0-1.308-0.683-1.991-1.991-1.991 0 1.308-0.683 2.332-1.991 3.015s-2.674 1.024-3.982 1.024h-4.039v1.934l1.991 1.991c0 1.308 0 2.332 0 3.015s0 1.65 0 3.015c-1.308 2.617-2.332 4.267-3.015 5.006-0.626 0.626-1.65 0.967-2.958 0.967h-2.048c-1.308 0-2.674 0-3.982 0h-3.982c-1.308 1.308-2.674 1.991-3.982 1.991v1.991h-2.048l-1.991 2.048c-2.674 1.308-4.665 1.991-5.973 1.991s-2.674-0.683-3.982-1.991h-2.048c-1.308 0-2.674 0.683-3.982 1.991-2.674 1.308-4.665 1.991-6.030 1.991-1.308-1.365-3.3-3.356-5.973-6.030v-1.991l1.991-8.021v-1.991l-1.991-5.973c0-1.308-0.341-2.674-1.024-3.982s-1.024-2.674-1.024-3.982v-1.991c0-1.308 0.683-1.991 1.991-1.991 0-1.308 0.341-2.332 1.024-3.015s1.65-1.707 3.015-3.015c0-1.308 0.683-2.674 1.991-3.982 1.308-2.674 1.991-4.722 1.991-5.973v-1.991c0-1.308-0.683-3.982-1.991-8.021l-5.973-2.048c-1.308-1.365-2.674-2.674-3.982-3.982s-1.991-2.674-1.991-3.982c0-2.674 1.308-5.348 3.982-8.021 0-1.308 0.683-1.991 1.991-1.991 0-1.308 0-2.674 0-3.982l-3.982-3.982c-1.308 0-2.674 0-3.982 0h-4.039c-1.308 2.674-2.674 4.665-3.982 5.973v1.934h-1.991c0 1.308 0 2.674 0 3.982s0 2.674 0 3.982c0 1.308-0.341 2.674-1.024 3.982s-1.024 2.674-1.024 3.982c0 1.308-0.683 1.991-1.991 1.991-1.308 2.788-2.958 4.437-5.006 5.12-1.991 0.626-4.324 0.284-6.997-1.024-1.308 0-2.674 0-3.982 0h-1.991c0 1.308-0.683 1.991-1.991 1.991s-1.991-0.341-1.991-0.967c0-0.683-0.683-1.024-1.991-1.024 0-1.308 0-2.332 0-3.015s-0.683-1.024-1.991-1.024c-9.387-15.929-18.034-32.256-26.055-48.924-7.964-16.725-14.677-34.361-19.968-53.020-6.713-17.351-11.378-35.726-13.995-55.012-2.674-19.342-4.039-38.969-4.039-58.994 0-3.982 0.341-8.021 1.024-12.004s1.024-8.021 1.024-12.004v-3.982c0-1.308 0-2.332 0-3.015s0-1.707 0-3.015h3.982l1.991-1.991h1.991l8.021-5.973c1.308 0 2.674 0 3.982 0h9.956l5.973 5.973 1.991-1.991c1.308 0 1.991-0.683 1.991-1.991h1.991v-1.991h1.991v-1.991h2.105l3.982-1.991 1.991 1.991v-1.991l1.991-1.991c1.365-1.365 2.389-2.048 3.015-2.048s1.65 0 3.015 0h13.995c0-1.308 0-2.332 0-3.015s0-1.707 0-3.015c1.308-2.674 3.015-5.348 5.006-8.021s4.324-4.722 6.997-5.973l7.964-7.964h1.991c0-2.674 0.683-3.982 1.991-3.982h9.956l3.982 1.991h1.991c1.308 0 2.674 1.308 3.982 3.982v1.991h1.991v-3.982l1.991-3.982 1.991-1.991 3.982-1.991 1.991-12.004v-1.991h-1.82c0-1.308-0.683-1.991-1.991-1.991s-1.991-0.683-1.991-1.991l-1.991-1.991v-1.991h1.991l-1.991-1.991v-1.991h-3.982l-3.982-3.982v-1.991l-1.991-1.991v-5.973c-1.308-1.308-1.65-2.332-1.024-3.015 0.683-0.683 1.65-1.707 3.015-3.015v-1.991h1.991c-1.308 0-2.332-0.341-3.015-1.024s-1.024-1.707-1.024-3.015l-1.991-1.991v-1.991c0-1.308 0-3.356 0-5.973 0-1.308 0.341-2.332 1.024-3.015s1.65-1.024 3.015-1.024l1.991-5.973c0-1.308 0.683-1.991 1.991-1.991s1.991-0.341 1.991-1.024c0-0.683 0.683-1.707 1.991-3.015 0-1.308 0.683-1.991 1.991-1.991l1.991-8.021 1.991-1.991 1.991-8.021c1.308-1.308 2.674-1.991 3.982-1.991l2.048-4.096c1.308 0 1.991-0.683 1.991-1.991v-3.982c0-1.308 0-2.674 0-3.982 1.308 0 1.991-0.683 1.991-1.991h1.991l1.991-1.991h1.991c1.308 0 2.674-0.683 3.982-1.991h3.982c0-1.308 0.341-2.332 1.024-3.015s1.65-1.024 3.015-1.024c1.308-1.308 1.991-2.674 1.991-3.982l5.973-1.991 3.982-3.982c1.308 0 2.674 0 3.982 0v-19.968c-1.308-1.308-1.991-3.015-1.991-5.006s0-3.698 0-5.006c0-1.308 0.683-2.674 1.991-3.982v-2.105c0-1.308-0.341-1.991-1.024-1.991s-1.024-0.683-1.024-1.991c-1.308-2.674-1.991-4.722-1.991-5.973v-3.982l-1.991-3.982c0-1.308-0.341-2.674-1.024-3.982s-1.024-2.674-1.024-3.982c1.308-1.308 1.991-2.332 1.991-3.015s0.683-1.707 1.991-3.015c0-1.308 0-2.674 0-3.982s0-2.674 0-3.982c0-1.308 0-2.674 0-3.982s0-2.674 0-3.982c0-1.308 0-2.674 0-3.982v0-1.991l-1.991-1.991c-1.308-1.308-1.991-2.674-1.991-3.982s-0.683-1.991-1.991-1.991v-1.991c1.308-1.308 2.674-1.991 3.982-1.991 0-1.308 0.341-1.991 1.024-1.991s1.024-0.683 1.024-1.991c6.656-3.982 12.686-7.68 17.977-10.98 5.348-3.356 10.695-6.315 15.986-8.988 1.308 0 2.332-0.341 3.015-1.024 0.853-0.967 1.82-1.252 3.186-1.252zM311.979 433.095l-3.982 5.973h-8.021l-1.991 2.048c-1.308 1.308-2.674 2.674-3.982 3.982h-3.982c-1.308 1.308-2.674 2.332-3.982 3.015-1.365 0.683-2.731 1.024-4.039 1.024 0 1.308-0.683 1.991-1.991 1.991l-1.991 1.991c-1.365 0-2.674 0.683-4.039 1.991-1.308 0-2.617 0-3.982 0h-10.012v1.991c-1.308 0-2.332 0-3.015 0s-0.967 0.683-0.967 1.991h-1.991c-1.308 1.308-2.674 1.991-3.982 1.991s-2.674 0-3.982 0h-2.048c0 1.308-0.683 1.991-1.991 1.991l-5.973 3.982-2.048 2.048h-1.991c-1.308 0-2.332-0.341-3.015-1.024-0.626-0.683-1.65-0.967-2.958-0.967h-1.991c0-1.308-0.683-1.991-1.991-1.991v-8.021l3.982-1.991h1.991l1.991-1.991c1.308-1.365 2.674-1.991 3.982-1.991h3.982c0-1.308 0.683-1.991 1.991-1.991 1.365-1.365 2.389-2.048 3.015-2.048s1.65 0 3.015 0h1.991l1.991-1.991h2.048c0-1.308 0.683-2.332 1.991-3.015s2.674-1.707 3.982-3.015h5.973l1.991-1.991c1.308 0 2.332-0.341 3.015-1.024 0.683-0.626 2.389-0.967 5.006-0.967h1.991l1.991-1.991c1.365-1.308 2.389-2.332 3.015-2.958 0.683-0.683 1.65-1.024 3.015-1.024s2.674 0 3.982 0 2.674 0 3.982 0 2.674 0 3.982 0 2.674 0 3.982 0h5.973c1.422 1.308 2.446 1.991 3.129 1.991s1.65 0.683 2.958 1.991zM297.984 785.123c-1.308 0-2.332-0.341-3.015-1.024-0.626-0.683-1.65-1.707-2.958-3.015s-2.674-1.991-3.982-1.991c-5.348-3.982-10.695-8.021-15.986-12.004s-10.695-8.647-16.043-13.995c-1.308-1.308-2.674-1.991-3.982-1.991 0-1.308-0.341-1.991-1.024-1.991s-0.967-0.683-0.967-1.991c1.308 0 1.991-0.683 1.991-1.991l1.991-1.991c1.308-1.308 2.674-2.332 3.982-3.015s2.674-1.024 3.982-1.024l1.991-1.991 5.973-3.982c1.308-1.308 2.674-2.674 3.982-3.982s2.674-1.991 3.982-1.991h3.982c1.422-1.365 3.47-2.048 6.144-2.048h1.991c1.308 0 2.674 1.308 3.982 3.982v2.048l1.991-1.991h1.991v1.991h1.991v-1.991l3.982 3.982v1.991c0 1.308 0 3.3 0 5.973v6.030h3.982c1.308 0 2.674 0.683 3.982 1.991s3.015 2.674 5.006 3.982c1.991 1.308 2.332 3.982 1.024 8.021 0 1.308 0 3.015 0 5.006s-0.626 4.267-1.934 6.997c-1.365 2.674-3.698 5.006-6.997 6.997s-6.997 3.641-11.036 5.006zM328.021 77.084c-1.308 0-2.332 0-3.015 0s-1.024 0.683-1.024 1.991v-1.991c1.365 0 2.674 0 4.039 0zM525.995 841.102v1.991l3.982 3.982h1.991c-1.308 0-2.674 0.284-3.982 1.024-1.308 0.683-2.674 1.024-3.982 1.024h-3.982c-1.308 0-2.674 0-3.982 0s-2.674 0-3.982 0c-12.004 0-24.348-0.683-36.978-1.991-12.743-1.365-24.405-3.356-35.1-6.030-12.004-1.308-23.666-3.698-34.987-6.997s-22.983-6.997-34.987-10.98c0-1.308-0.341-1.991-1.024-1.991s-1.65 0-3.015 0c-2.617-1.365-5.291-2.731-7.964-4.039s-5.348-2.674-8.021-3.982h1.991c1.308 0 2.674 0 3.982 0l8.021 1.991v-5.973c0-1.308 0-2.332 0-3.015s0-1.707 0-3.015c0-1.308 0-2.332 0-3.015s-0.683-1.024-1.991-1.024c0-1.308-0.341-2.674-1.024-3.982s-1.024-2.674-1.024-3.982v-3.982c-1.252-1.365-2.276-2.332-2.958-3.015-0.626-0.683-0.967-1.707-0.967-3.015s0-2.332 0-3.015c0-0.683 0.683-1.707 1.991-3.015l15.986-8.021v-1.991c0-1.308 0-2.674 0-3.982 0-2.674 0.341-5.348 1.024-8.021s1.65-4.722 3.015-5.973c0-1.308 0.341-2.332 1.024-3.015s1.65-1.024 3.015-1.024v-1.991h1.934c0-1.308 0.683-2.674 1.991-3.982s2.674-2.674 3.982-3.982c1.308-2.674 1.991-4.722 1.991-5.973h1.991l1.991-3.982c0-1.308 0.683-1.991 1.991-1.991l8.021-1.991h1.991c0-1.308 0.683-1.991 1.991-1.991l3.982-1.991h8.021c1.308 0 2.332 0.284 3.015 1.024 0.683 0.626 1.707 0.91 3.015 0.91 1.308 1.308 1.991 3.3 1.991 5.973s0 5.291 0 8.021v2.048l1.991 3.982 10.069 8.021 1.991 5.973c1.308 1.308 1.991 2.332 1.991 3.015s0 1.65 0 3.015v3.982c1.308 0 2.674 0 3.982 0 0-1.308 0.683-1.991 1.991-1.991s2.674 0 3.982 0h3.982c1.308 0 2.332 0 3.015 0s1.024 0.683 1.024 1.991c1.308 0 1.991 0.284 1.991 1.024 0 0.683 0.683 1.024 1.991 1.024 0 1.308 0 2.332 0 3.015s0 1.65 0 3.015l1.991 10.012 1.991 5.973h1.991c0 1.308 0.683 1.991 1.991 1.991h7.964c1.308 0 2.674 0 3.982 0l5.973 3.982 8.021 3.982 14.108 1.991c2.674 0 5.006 0.683 6.997 1.991s3.015 2.674 3.015 3.982c0 2.674-0.341 5.006-1.024 6.997s-2.276 3.698-4.949 5.006h1.991l1.991 1.991h1.991c3.982 3.982 5.689 7.68 5.006 10.98s-1.65 5.689-3.015 6.997l-1.991 6.030zM512 33.109v0zM776.021 167.083v-1.991c1.308 0 2.674 0.683 3.982 1.991l3.982 3.982c15.986 15.986 31.004 33.28 44.999 51.996 13.995 18.66 26.34 38.684 36.978 60.018 9.33 20.025 17.351 41.643 24.007 65.024 6.656 23.324 11.321 46.99 13.995 70.997 0 1.308 0 2.674 0 3.982s0 2.674 0 3.982c0 1.308 0 2.674 0 3.982s0 2.674 0 3.982c0 1.308 0 2.674 0 3.982s0.341 3.015 1.024 5.006 1.024 3.641 1.024 5.006 0 2.332 0 3.015c0 0.683 0 1.65 0 3.015 0 1.308 0 2.674 0 3.982 0 25.316-2.674 50.29-8.021 74.98s-12.686 47.673-22.016 69.006c-9.33 22.756-20.651 44.373-33.963 65.081-13.312 20.651-27.989 39.652-43.975 57.003l-1.991 1.991c-1.308 1.308-2.332 2.332-3.015 3.015s-1.024 1.65-1.024 3.015c-1.308 0-2.674 0.683-3.982 1.991s-3.015 3.015-5.006 5.006-3.641 3.641-5.006 5.006-2.674 2.332-3.982 3.015c-1.365 0.626-2.048 1.65-2.048 2.958-1.308 0-1.991 0.284-1.991 1.024 0 0.683-0.683 1.024-1.991 1.024 0-1.308 0-2.674 0-3.982v-5.973c0-1.308 0-2.674 0-3.982v-3.982l3.982-3.982c1.308-1.308 1.991-1.308 1.991 0l1.991-1.991v-1.991c1.308-1.308 2.674-2.674 3.982-3.982v-1.991l3.982-5.973v-1.991c-1.308 1.308-3.356 1.991-5.973 1.991l-3.982-1.991c-1.308 0-2.332-0.341-3.015-1.024s-1.65-1.707-3.015-3.015c-1.308-1.308-1.991-2.674-1.991-3.982s0-2.674 0-3.982c0-1.308 0-2.674 0-3.982h2.048c0-1.308-0.683-1.991-1.991-1.991l-5.973-1.991c-1.308 0-2.674-0.683-3.982-1.991h-1.991c-1.308 1.308-2.332 1.991-3.015 1.991s-1.65 0-3.015 0l-3.982-1.991v1.764l-1.991-1.991h-1.991l-3.982-3.982-1.991 1.991c-2.674 1.308-4.665 1.991-5.973 1.991s-2.332-0.341-3.015-1.024c-0.683-0.683-1.65-1.024-3.015-1.024l1.991 3.982c0 1.308-0.341 2.674-1.024 3.982s-1.65 1.991-3.015 1.991c-1.308 1.308-2.674 1.991-3.982 1.991v2.048c1.308 0 1.991 0.683 1.991 1.991l3.982-3.982h1.991v-1.991c0-1.308 0.341-2.332 1.024-3.015s1.65-1.707 3.015-3.015l3.982-1.991h1.991c2.674 0 4.665 0.683 5.973 1.991s1.991 2.674 1.991 3.982h3.982c2.674 1.308 4.665 3.3 5.973 5.973s1.65 5.291 1.024 8.021c-0.683 2.674-1.024 4.665-1.024 5.973 1.308 1.308 1.991 2.674 1.991 3.982 1.308 0 1.991 0.284 1.991 1.024 0 0.683 0.683 1.024 1.991 1.024l3.982 3.982c0 1.308 0 2.674 0 3.982 0 2.674-0.683 3.982-1.991 3.982l-1.991 3.982h-1.991c-1.308 0-1.991 0.683-1.991 1.991s0 3.3 0 5.973c0 1.308 0.341 1.991 1.024 1.991s1.024 0.683 1.024 1.991h1.991l1.991 1.991h1.991v2.162h1.991c0 1.308 0.683 1.991 1.991 1.991-1.308 0-2.674 0.683-3.982 1.991s-2.674 1.991-3.982 1.991c-3.982 3.982-8.647 8.021-13.995 12.004s-10.695 7.282-15.986 10.012l-1.991 1.991c-1.308 1.308-2.674 1.991-3.982 1.991l-3.982-1.991-1.991-3.982v-1.991c0-1.308-0.683-2.674-1.991-3.982 0-1.308-0.341-1.991-1.024-1.991s-1.024-0.683-1.024-1.991h-2.048c0-1.308-0.683-1.991-1.991-1.991v-1.991h-1.991l-1.991-3.982h-3.982c-1.308-1.308-1.991-2.674-1.991-3.982-1.308-1.308-2.674-1.991-3.982-1.991h-1.991l-1.991-1.991c-1.308 0-2.332-0.341-3.015-1.024s-1.024-1.707-1.024-3.015h-1.991l-3.982-1.991c0-1.308 0-2.674 0-3.982s0-2.674 0-3.982c0-1.308 0.683-2.674 1.991-3.982v-1.991l1.991-1.991c0-1.308 0-3.015 0-5.006s-0.683-3.015-1.991-3.015c0-1.308 0-2.674 0-3.982v-1.991l1.991-3.982h1.991v-1.991c0-1.308 0.683-1.991 1.991-1.991l1.991-1.991h7.964v-2.162c0-1.308 0-2.674 0-3.982-1.308 0-1.991-0.683-1.991-1.991 0-2.674 0.341-5.006 1.024-6.997s1.65-3.698 3.015-5.006l3.982-3.982h-3.982l-5.973-1.991h-1.991l-1.991-1.991h-1.991v-0.057l-1.991-1.991h-1.991c-1.308 0-2.674 0-3.982 0-1.308-1.308-1.991-2.674-1.991-3.982h-1.991v-7.964l-1.991-1.991h-1.991l-3.982-3.982c0 1.308 0.683 2.674 1.991 3.982v1.934c0 1.308 0 2.674 0 3.982-1.308 1.308-2.674 2.674-3.982 3.982h-1.991l-1.991 1.991c0 2.674-0.683 4.665-1.991 5.973l-1.991 3.982c-1.308 0-2.674 0.683-3.982 1.991l-1.991 1.991c0 1.308-0.341 2.674-1.024 3.982s-1.65 1.991-3.015 1.991l1.991 1.991v6.144c0 1.308-0.683 1.991-1.991 1.991v1.991l-2.219 1.991h-1.991c0 1.308 0.341 2.332 1.024 3.015s0.341 1.65-1.024 3.015c0 1.308-0.683 2.674-1.991 3.982s-2.674 1.991-3.982 1.991h-1.991c-1.308-1.308-2.332-2.332-3.015-3.015s-1.65-1.707-3.015-3.015v-1.991h-5.973l-1.991 1.991c-1.308 0-2.332-0.341-3.015-1.024s-1.65-1.024-3.015-1.024l-1.991-3.925v-3.982l1.991-1.991v-1.991l1.991-1.991v-3.982l1.991-1.991v-1.991c-1.308 0-2.674-0.341-3.982-1.024s-1.991-1.707-1.991-3.015c-1.308 0-1.991-0.341-1.991-1.024s-0.683-1.024-1.991-1.024c-1.308-1.308-1.991-2.674-1.991-3.982h-5.973l-3.982-1.991v-3.982c0-1.308 0.683-2.674 1.991-3.982l1.991-1.991c0-1.308 0.683-2.674 1.991-3.982-1.308 0-2.332-0.341-3.015-1.024s-1.024-1.707-1.024-3.015c0-2.674 0.683-4.722 1.991-5.973 1.308-1.308 2.332-1.991 3.015-1.991s1.65 0 3.015 0h1.991c2.674 0 4.665 0.683 5.973 1.991s1.991 2.674 1.991 3.982h5.973l1.991 3.982v3.982c0 1.308-0.683 2.674-1.991 3.982v1.991l3.982 3.982c1.308 1.308 1.991 2.674 1.991 3.982l-1.991 5.973h1.991v-3.982l1.991-1.991v-3.982c0-1.308-0.341-1.991-1.024-1.991s-1.65 0-3.015 0c0-1.308-0.341-2.332-1.024-3.015s-0.341-2.332 1.024-5.006c0-1.308 0.341-2.332 1.024-3.015s1.65-1.707 3.015-3.015c-1.308-1.308-1.991-2.674-1.991-3.982v-3.982l1.991-3.982h1.991v-1.991h5.973c1.308 1.308 2.674 2.674 3.982 3.982 1.308 0 2.332 0 3.015 0s1.65 0 3.015 0l10.012 1.991h1.991l-1.877-1.991c0-1.308-1.308-1.991-3.982-1.991-1.308 0-2.674-0.683-3.982-1.991v-1.991h-14.052c0-1.308-0.683-1.991-1.991-1.991h-1.991c-1.308-1.308-1.991-2.674-1.991-3.982s0-2.674 0-3.982c1.308-2.674 2.674-3.982 3.982-3.982h1.991l1.991-1.991c0-1.308 0.683-1.991 1.991-1.991 0-1.308 0.341-2.332 1.024-3.015s1.65-1.024 3.015-1.024h1.991v-15.929c-1.308 0-2.332 0-3.015 0s-1.65 0-3.015 0h-19.968c-2.674 0-4.665-0.341-5.973-1.024s-2.674-1.024-3.982-1.024c0-1.308-0.683-2.332-1.991-3.015s-1.991-1.707-1.991-3.015c0-2.674 0.683-3.982 1.991-3.982v-18.034c-1.308 0-1.991-0.683-1.991-1.991v-3.982l3.982-3.982v-1.991c0-1.308 0.683-3.356 1.991-5.973 1.308-1.308 2.332-1.991 3.015-1.991s1.65 0 3.015 0h1.991c1.308 0 2.674 0.683 3.982 1.991h1.991v-3.982h-1.991v-1.991c0-1.308 0-2.674 0-3.982v-1.991h-1.991v-1.991c0-1.308-0.341-1.991-1.024-1.991s-1.024-0.683-1.024-1.991c-1.308 0-1.991-0.683-1.991-1.991h-1.991l-1.991-1.991h-1.991c-1.308 0-1.991-0.683-1.991-1.991l-1.991-3.982v-1.991c0-1.308 0-2.332 0-3.015s0-1.707 0-3.015c0-1.308 0-2.674 0-3.982l-5.973-5.973c0-1.308-0.683-1.991-1.991-1.991h-3.982l-1.991-1.991v1.764-1.991h-1.991c-2.674-1.308-5.006-3.698-6.997-6.997-1.991-3.356-3.015-5.689-3.015-6.997v-1.991h-2.162v-5.973c-1.308 0-1.991-0.683-1.991-1.991s0-2.674 0-3.982l-1.991-2.105v-1.991c-1.308-1.308-2.674-2.674-3.982-3.982v-1.991c-1.308 0-2.332-1.024-3.015-3.015s-0.967-3.698-0.967-5.006l3.982-3.982c1.308 0 1.991-0.683 1.991-1.991s0-2.674 0-3.982c1.308-1.308 1.991-2.674 1.991-3.982v-7.964h-1.991l-1.991-2.105c0-1.308-0.341-2.674-1.024-3.982s-1.024-3.356-1.024-5.973l1.991-1.991v-3.982h1.991v-7.964c0-1.308 0.341-2.332 1.024-3.015s1.65-1.024 3.015-1.024c0-1.308 0.683-1.991 1.991-1.991s2.674-0.683 3.982-1.991c1.308-1.308 2.332-2.332 3.015-3.015s1.024-1.707 1.024-3.015h1.991c0-1.308 0.341-2.332 1.024-3.015s1.65-1.707 3.015-3.015v-3.982c1.308-2.674 2.674-3.982 3.982-3.982l1.991-1.991 3.982 1.991 1.991-1.991 1.991-3.982h1.991c0-1.308 0.683-1.991 1.991-1.991l1.991-1.991c1.308 0 1.991-0.683 1.991-1.991l1.991-1.991c1.308-1.308 2.674-1.991 3.982-1.991s3.356 0 5.973 0l5.973 1.991h-1.991c1.308 0 2.674 0.683 3.982 1.991h1.991c2.674 0 3.982 0.683 3.982 1.991h1.991c1.308 0 2.674 0.683 3.982 1.991l5.973-1.991h1.991c1.308 0 3.356 0.683 5.973 1.991h1.991v1.991h5.973l1.991 1.991c1.308 0 2.332 0 3.015 0s1.65 0.683 3.015 1.991c1.308 0 2.674 0 3.982 0s2.674 0 3.982 0l3.982-1.991h1.991v-1.991c0-1.308 0.341-2.332 1.024-3.015s1.65-1.707 3.015-3.015h7.964c0 1.308 0.341 1.991 1.024 1.991s1.65 0 3.015 0h1.991l3.982-1.991h3.982c0-1.308 0.341-3.356 1.024-5.973 0.683-2.674 1.024-5.348 1.024-8.021v-1.991c-1.308 0-2.332-1.024-3.015-3.015s-1.024-3.698-1.024-5.006v-1.991c1.308-1.308 2.332-2.674 3.015-3.982s1.65-2.674 3.015-3.982l3.982-3.982 5.973-12.004c1.308-1.308 2.332-2.674 3.015-3.982s1.65-1.991 3.015-1.991v-1.991h1.991c0-1.308 0-2.674 0-3.982l1.991-1.991v-3.982c0-1.308 0.341-2.332 1.024-3.015s1.024-1.707 1.024-3.015l1.991-5.973v-1.991c0-1.308-0.341-1.991-1.024-1.991s-1.024-0.683-1.024-1.991h-1.991c-1.308-1.308-2.674-1.991-3.982-1.991-1.308-1.308-1.991-2.674-1.991-3.982s0-2.674 0-3.982v-13.995c0-1.308 0-3.015 0-5.006s0-3.698 0-5.006c0-1.308 0.683-2.674 1.991-3.982s2.674-1.991 3.982-1.991v-1.991h1.991v-1.991c1.308-1.308 2.674-2.674 3.982-3.982 0-1.308 0.341-3.356 1.024-5.973 0.683-2.674 1.024-5.348 1.024-8.021 0-1.308 0.341-2.332 1.024-3.015s1.024-1.707 1.024-3.015v-3.982l1.991-8.021c0-1.308 0-2.674 0-3.982s0.683-1.991 1.991-1.991l5.973-8.021c1.308-1.308 1.991-2.674 1.991-3.982 1.308-1.308 1.991-2.674 1.991-3.982h1.991l3.982-1.991 1.991-1.991v-5.973l-1.991-1.991c-1.308-1.308-1.65-3.015-1.024-5.006s2.048-4.096 3.413-5.404zM785.977 549.091h-1.991c-1.308 1.308-2.332 1.991-3.015 1.991s-1.65 0-3.015 0l-3.982-1.991-1.991-1.991-1.991-5.973v-8.021c-1.308 0-2.332 0-3.015 0s-1.65 0-3.015 0l-8.021 1.991c0 1.308-0.341 1.991-1.024 1.991s-1.024 0.683-1.024 1.991c-1.308 1.308-2.674 2.674-3.982 3.982h-1.991v2.048h-1.991c0 1.308-0.683 1.991-1.991 1.991 0 1.308-0.341 1.991-1.024 1.991s-1.65 0-3.015 0c0 1.308-0.683 1.991-1.991 1.991s-2.674-0.683-3.982-1.991h-3.982l-1.991 1.991v6.030c0 2.674-0.341 4.324-1.024 5.006s-1.65 1.65-3.015 3.015c0 1.308-0.341 2.674-1.024 3.982s-1.65 1.991-3.015 1.991h-7.964c-1.308 0-2.674-0.683-3.982-1.991l-3.982-1.991 1.991 3.982c0 1.308-0.683 1.991-1.991 1.991s-2.674 0-3.982 0c-2.674-1.308-5.006-1.991-6.997-1.991s-4.324 0-6.997 0-5.348-0.341-8.021-1.024c-2.674-0.683-4.665-1.024-5.973-1.024s-1.991-0.341-1.991-1.024c0-0.683-0.683-1.024-1.991-1.024s-2.674-0.683-3.982-1.991c-1.308-1.308-2.674-1.991-3.982-1.991-1.308-1.308-2.332-2.332-3.015-3.015s-1.65-1.024-3.015-1.024l-3.982-1.991h-8.021l-1.991 2.105h3.982v1.991h10.012l3.982 3.982v2.048l1.991 1.991c1.308 0 2.674 0.683 3.982 1.991l1.991 3.982v8.021l1.991 1.991c1.308 0 1.991 0.683 1.991 1.991h1.991v1.991h1.991c1.308 0 1.991 0.683 1.991 1.991h1.991c1.308 0 1.991 0.683 1.991 1.991h1.991c1.308 1.308 1.991 2.674 1.991 3.982s-0.683 2.674-1.991 3.982v2.105c1.308 1.308 2.674 1.991 3.982 1.991l1.991 1.991v-1.991c1.308 0 1.991-0.341 1.991-1.024s0.683-1.024 1.991-1.024 2.674 0 3.982 0c1.308-1.308 3.982-1.308 8.021 0 1.308 1.308 2.674 2.674 3.982 3.982l1.991 1.991h1.991l1.991-1.991h1.991v-3.982l3.982-3.982c1.308-1.308 2.674-1.991 3.982-1.991l1.991-1.991c1.308 0 2.332-0.341 3.015-1.024s1.65-1.024 3.015-1.024l10.012-8.021h1.991v-1.934h1.991v-1.991l-1.764-1.991c0-2.674 0.683-4.722 1.991-5.973 1.308 0 2.674-0.683 3.982-1.991h1.991c1.308 1.308 2.674 2.674 3.982 3.982l1.991 1.991c1.308 1.308 1.991 2.674 1.991 3.982v3.982h5.973v1.991h2.105l5.973-3.982 1.991 3.982v-3.982h-1.991c0-1.308 0.683-2.674 1.991-3.982h3.982c1.308 0 2.674 0 3.982 0l1.991-1.991c1.308 0 2.332-0.341 3.015-1.024s1.65-1.024 3.015-1.024h3.982c1.308 0 2.674 1.308 3.982 3.982 0 1.308-0.341 2.332-1.024 3.015s-1.024 1.65-1.024 3.015l-1.877 1.991v1.991l1.991 1.991h1.991l1.991-1.991v-1.991c0-1.308 0.683-2.674 1.991-3.982l1.991-1.991c0-1.308 0.341-2.332 1.024-3.015s1.024-1.707 1.024-3.015c0-1.308 0.683-1.991 1.991-1.991v-1.991l1.991-1.991h1.991c1.308-1.308 2.674-2.674 3.982-3.982l3.982-3.982h5.973c1.308 0 2.674 1.308 3.982 3.982h1.991c1.308 0 2.674-0.341 3.982-1.024s2.674-0.341 3.982 1.024h1.991c1.308 0 2.674 0 3.982 0s2.674 0 3.982 0 2.674 0.683 3.982 1.991v-1.991c-1.308 0-1.991-0.341-1.991-1.024s0-1.707 0-3.015c0-1.308-0.683-1.991-1.991-1.991v-1.991l-1.991-3.982v-5.973c-1.308 0-1.991-0.683-1.991-1.991h-1.991l-1.991-5.973 3.982-5.973-1.991-1.991 1.991-3.982h-1.991v1.877h-3.982l-15.815-8.021-1.991 1.991 12.004 8.021-2.048 5.973h1.991l8.021 3.982-3.982-1.991h-6.030l-1.991 1.991h-1.991l-1.991 1.991c-3.982-1.308-8.021-1.991-12.004-1.991s-7.339 0.683-10.012 1.991h-1.991v2.048c-1.308 0-2.674 0.683-3.982 1.991s-3.982 1.991-8.021 1.991h-6.030zM716.004 713.102l-1.991 1.991c0 1.308-0.683 1.991-1.991 1.991h1.991v2.048l1.991-3.982v-2.048zM740.011 609.109c0 1.308-0.683 2.674-1.991 3.982 1.308 0 1.991-0.683 1.991-1.991h5.973v-1.991h1.991l1.991-3.982h1.991c1.308-1.308 2.674-1.991 3.982-1.991 1.308-1.308 2.332-1.991 3.015-1.991s1.024-0.683 1.024-1.991h1.991l1.991-1.991h-1.991c0 1.308-0.683 1.991-1.991 1.991l-3.982 1.991h-1.991v1.991c-1.308 0-2.332 0-3.015 0s-1.024 0.683-1.024 1.991c-1.308 0-2.674 0.683-3.982 1.991h-1.991c-1.308 0-1.991 0.683-1.991 1.991h-1.991zM854.016 513.138h1.991l3.982-8.021c1.308-1.308 2.332-1.991 3.015-1.991s1.024-0.683 1.024-1.991c1.308 0 1.991-0.683 1.991-1.991 1.308 0 1.991-0.683 1.991-1.991l3.982-1.991h1.991v-5.973c0-1.308 0.341-2.674 1.024-3.982s1.024-2.674 1.024-3.982l7.964-7.964v-1.991l1.991-1.991c1.308-1.308 1.991-2.332 1.991-3.015s0.683-1.024 1.991-1.024c0-1.308 0.341-1.991 1.024-1.991s1.024-0.683 1.024-1.991c1.308-1.308 2.674-2.674 3.982-3.982l1.991-2.162c-1.308 0-1.991-0.683-1.991-1.991v-5.973c1.308 0 1.991-0.683 1.991-1.991l1.991-1.991c0-1.308 0-2.332 0-3.015s0-1.707 0-3.015c0 1.308-0.683 2.674-1.991 3.982h-1.991c-1.308 0-2.674 0.683-3.982 1.991 0 1.308-0.683 1.991-1.991 1.991l-1.991 1.991h-1.991c0 1.308-0.683 1.991-1.991 1.991v2.048c0 1.308 0 3.015 0 5.006s0 3.641 0 5.006c-1.308 1.308-2.332 2.332-3.015 3.015s-1.65 1.65-3.015 3.015c-1.308 0-2.674 0.683-3.982 1.991s-1.991 2.674-1.991 3.982l1.991 1.991c-1.308 2.674-1.991 4.665-1.991 5.973s-0.683 2.674-1.991 3.982v1.991c-1.308 0-2.674 0.683-3.982 1.991 0 1.308-0.341 1.991-1.024 1.991s-1.024 0.683-1.024 1.991l-1.991 1.991c-1.308 1.308-1.991 2.674-1.991 3.982v2.105c-1.308 0-2.332 0.683-3.015 1.991s-1.024 2.674-1.024 3.982c-1.308 1.308-1.991 2.332-1.991 3.015s0 1.65 0 3.015l-1.991 5.973h-1.991v5.973h1.991l1.991-3.982v-3.982c0-1.365 0-2.731 0-3.982z" data-tags="globe" />
<glyph unicode="&#xe637;" d="M32 896v-896h960v896h-960zM160 64c-35.328 0-64 28.672-64 64s28.672 64 64 64 64-28.672 64-64-28.672-64-64-64zM160 704c-35.328 0-64 28.672-64 64s28.672 64 64 64 64-28.672 64-64-28.672-64-64-64zM736 588.864v-332.864h-64v64h-64v-64h-64v64h-64v-64h-64v64h-64v-64h-64v384h64v-64h64v64h64v-64h64v64h64v-64h64v64h64v-51.136zM864 64c-35.328 0-64 28.672-64 64s28.672 64 64 64 64-28.672 64-64-28.672-64-64-64zM864 704c-35.328 0-64 28.672-64 64s28.672 64 64 64 64-28.672 64-64-28.672-64-64-64z" data-tags="hardware" />
<glyph unicode="&#xe638;" d="M405.824 192h157.696v-152h-157.696v152zM512.128 851.52c-89.984 0-163.392-27.072-212.224-78.336-41.472-43.584-61.76-101.056-58.56-166.272l1.088-22.848h154.112l2.304 21.376c0.384 3.584 10.88 88.32 113.28 88.32 104.96 0 113.088-65.6 113.088-85.76 0-32.64-30.272-49.088-79.616-73.152-62.272-30.272-139.776-68.032-139.776-173.632v-105.216h157.696v77.824c0 31.296 26.88 47.232 74.304 72.704 61.248 32.832 145.152 77.824 145.152 201.536 0 143.36-111.36 243.456-270.848 243.456z" data-tags="help" />
<glyph unicode="&#xe639;" d="M512 960c-282.752 0-512-229.248-512-512s229.248-512 512-512c282.784 0 512 229.248 512 512s-229.216 512-512 512zM544 224h-96v80h96v-80zM586.304 428.416c-27.968-15.008-42.304-25.92-42.304-44.416v-32h-96v49.664c0 62.368 47.072 84.64 83.84 102.56 29.152 14.208 47.040 23.872 47.040 43.168 0 11.904-4.832 50.624-66.784 50.624-60.48 0-66.624-50.016-66.88-52.16l2.784-1.856h-96l0.192 2.72c-1.824 38.496 10.112 72.416 34.624 98.176 28.832 30.24 72.16 46.24 125.28 46.24 94.144 0 159.904-59.104 159.904-143.744 0-73.024-49.504-99.552-85.696-118.976z" data-tags="help-circle" />
<glyph unicode="&#xe63a;" d="M0 960v-1024h1024v1024h-1024zM560.832 64h-149.312v143.872h149.248v-143.872zM631.104 410.88c-44.864-24.064-70.272-39.168-70.272-68.8v-73.664h-149.312v99.584c0 99.968 73.344 135.68 132.288 164.416 46.72 22.784 75.392 38.272 75.392 69.184 0 19.072-7.744 81.152-107.072 81.152-96.96 0-106.816-80.192-107.2-83.584l-2.176-20.288h-145.92l-1.024 21.632c-2.944 61.696 16.192 116.096 55.488 157.376 46.208 48.448 115.648 74.112 200.832 74.112 150.912 0 256.32-94.72 256.32-230.4 0-117.056-79.36-159.616-137.344-190.72z" data-tags="help-reverse" />
<glyph unicode="&#xe63b;" d="M896 561.6v334.4h-192v-174.144l-193.344 161.28-504.512-421.12 71.040-86.592 433.472 361.92 434.176-362.432 71.040 86.528zM128 331.328v-331.328h320v256h128v-256h320v330.304l-384 321.92z" data-tags="home" />
<glyph unicode="&#xe63c;" d="M832 490.88v277.12h-128v-148.096l-192 181.504-512-481.408h128v-320h768v320h128l-192 170.88zM832 64h-256v256h-128v-256h-256v320l320 283.84 320-283.84v-320zM256 320h128v-128h-128v128zM640 320h128v-128h-128v128z" data-tags="homeuse" />
<glyph unicode="&#xe63d;" d="M576 64h-128v384h128v-384zM576 576h-128v128h128v-128z" data-tags="info" />
<glyph unicode="&#xe63e;" d="M512 960c-282.752 0-512-229.248-512-512s229.248-512 512-512 512 229.248 512 512-229.248 512-512 512zM576 192h-128v288h128v-288zM576 576h-128v128h128v-128z" data-tags="info-circle" />
<glyph unicode="&#xe63f;" d="M1015.616 772.8c20.416-76.224 3.392-138.88-51.2-187.904-4.032-4.096-8.832-8.896-14.272-14.336-53.248-44.928-117.376-55.168-192.448-30.592l-335.68-328.896c2.688-8.192 5.44-16.384 8.192-24.512 21.824-77.632 6.144-142.336-47.104-194.048-6.848-6.848-14.336-13.568-22.464-20.416-62.784-43.648-133.056-47.616-210.816-12.224l98.24 96c19.072 21.76 19.072 45.632 0 71.552l-55.296 53.056c-1.344 1.408-4.096 3.392-8.192 6.144-23.232 19.072-45.056 17.088-65.472-6.144l-96.192-96c-4.096 10.944-8.192 22.464-12.288 34.752-23.168 76.224-8.192 141.632 45.056 196.096 53.12 48.896 117.888 64.576 194.368 46.912l345.92 337.024c0 1.344-0.704 2.688-2.048 4.096-24.576 80.32-8.896 147.072 47.040 200.128 6.848 6.784 14.4 13.632 22.592 20.416 62.72 43.584 133.056 47.68 210.816 12.288l-98.24-96c-19.136-21.76-19.136-45.632 0-71.488l55.232-53.12c1.344-1.344 4.096-3.392 8.192-6.144 23.232-19.072 45.056-17.024 65.472 6.144l96.256 96c5.504-12.224 10.24-25.152 14.336-38.784z" data-tags="installation-help" />
<glyph unicode="&#xe640;" d="M922.688 576h-112v85.312c0 164.288-134.4 298.688-298.688 298.688s-298.688-134.4-298.688-298.688v-85.312h-112c-20.544 0-37.312-16.768-37.312-37.312v-565.376c0-20.48 16.768-37.312 37.312-37.312h821.376c20.48 0 37.312 16.832 37.312 37.312v565.376c0 20.544-16.832 37.312-37.312 37.312zM510.528 44.8c-40.768 0-78.464 25.6-105.6 52.736l50.112 177.536c-23.552 17.536-39.040 45.376-39.040 76.928 0 52.992 43.008 96 96 96s96-43.008 96-96c0-29.696-13.76-55.808-34.88-73.472l43.008-180.992c-27.2-27.072-64.96-52.736-105.6-52.736zM698.688 576h-373.376v85.312c0 102.912 83.776 186.688 186.688 186.688s186.688-83.776 186.688-186.688v-85.312z" data-tags="license-management" />
<glyph unicode="&#xe641;" d="M377.088 148.16c13.312 11.648 27.456 17.472 42.496 17.472 18.304-1.728 34.112-7.488 47.424-17.472 25.024-26.56 25.024-56.576 0-89.792l-54.912-49.984c-49.984-48.256-106.624-72.384-169.856-72.384-64.96 1.6-121.536 25.728-169.856 72.384-48.32 49.984-72.384 105.728-72.384 167.296 1.6 66.624 25.792 124.032 72.384 172.352l189.824 189.824c59.968 58.176 120.704 90.624 182.336 97.344 63.296 6.592 118.208-11.712 164.8-54.912 13.376-14.976 20.032-29.952 20.032-44.928-1.664-16.704-8.32-32.448-20.032-47.488-29.952-26.688-59.968-26.688-89.792 0-43.392 40-99.968 25.792-169.92-42.432l-187.328-187.392c-23.36-24.896-34.944-52.352-34.944-82.368 1.6-31.744 13.312-57.408 34.944-77.312 24.96-23.36 51.584-35.008 79.936-35.008 29.952 1.6 56.576 13.248 79.936 35.008l54.912 49.792zM1023.936 712.704c-1.6-64.96-25.728-121.6-72.448-169.792l-202.304-202.304c-63.168-61.76-127.36-92.48-192.32-92.48-51.584 1.728-99.008 23.232-142.336 65.024-11.648 13.248-17.472 27.52-17.472 42.496 1.664 18.176 7.488 33.92 17.472 47.36 15.040 11.584 30.016 17.472 44.992 17.472 16.64-1.664 31.616-7.488 44.928-17.408 43.264-40 94.912-30.080 154.816 29.952l202.304 199.808c24.96 23.296 37.44 49.984 37.44 79.936-1.6 33.28-14.144 59.968-37.44 79.936-19.968 21.504-43.2 34.816-69.888 39.808-28.224 3.264-54.144-5.888-77.44-27.456l-64.96-62.464c-13.184-11.648-28.224-17.408-44.928-17.408-18.304 1.6-33.216 7.488-44.992 17.472-28.224 26.56-28.224 56.576 0 89.856l64.96 62.464c44.992 44.992 99.136 66.56 162.368 64.96 63.296-3.392 118.272-29.184 164.8-77.376 48.32-50.048 72.448-106.624 72.448-169.856z" data-tags="link" />
<glyph unicode="&#xe642;" d="M780.8 448h-12.8v96c0 158.4-129.536 288-288 288-158.4 0-288-129.6-288-288v-96h-12.8c-28.16 0-51.2-23.040-51.2-51.136v-409.664c0-28.16 23.040-51.2 51.2-51.2h601.6c28.096 0 51.2 23.040 51.2 51.2v409.664c0 28.096-23.040 51.136-51.2 51.136zM320 448v96c0 88.192 71.808 160 160 160s160-71.808 160-160v-96h-320z" data-tags="locked" />
<glyph unicode="&#xe643;" d="M459.392 800.981c-12.203 0-24.149-1.152-35.925-2.816l13.909-84.736c7.296 0.939 14.507 2.219 22.016 2.219 94.293 0 170.965-76.672 170.965-170.923 0-7.253-1.28-14.208-2.133-21.248l84.779-13.909c1.579 11.52 2.688 23.168 2.688 35.115-0.043 141.355-114.987 256.299-256.299 256.299zM459.392 960c-20.992 0-41.472-2.048-61.611-5.077l13.781-84.139c15.659 2.304 31.531 3.883 47.829 3.883 181.931 0 329.941-148.011 329.941-329.941 0-16-1.536-31.616-3.755-47.019l84.139-13.781c2.944 19.883 4.949 40.064 4.949 60.8 0 229.333-185.941 415.275-415.275 415.275zM448 618.667h-298.667c-46.933 0-85.333-38.4-85.333-85.333v-512c0-46.933 38.4-85.333 85.333-85.333h298.667c46.933 0 85.333 38.4 85.333 85.333v512c0 46.933-38.4 85.333-85.333 85.333zM298.667-21.333c-11.776 0-21.333 9.557-21.333 21.333s9.557 21.333 21.333 21.333 21.333-9.557 21.333-21.333-9.557-21.333-21.333-21.333zM448 64h-298.667v469.333h298.667v-469.333z" data-tags="mobile" />
<glyph unicode="&#xe644;" d="M816.96 783.104l-161.856 161.728c-8.256 8.256-24.64 15.040-36.352 15.040l-597.44 0.128c-11.712 0-21.312-9.6-21.312-21.312v-981.312c0-11.84 9.6-21.376 21.312-21.376h789.312c11.84 0 21.376 9.536 21.376 21.312v789.376c0 11.712-6.784 28.096-15.040 36.416zM768 21.312c0-11.776-9.536-21.312-21.312-21.312h-661.312c-11.776 0-21.376 9.536-21.376 21.312v853.312c0 11.776 9.6 21.376 21.376 21.376h469.312c11.776 0 21.312-9.6 21.312-21.376v-149.312c0-11.712 9.536-21.312 21.312-21.312h149.376c11.776 0 21.312-9.6 21.312-21.312v-661.376zM640 512v64h-320l-192 128v-320l192 128h256v-192h-64v-192h192v192h-64z" data-tags="model" />
<glyph unicode="&#xe645;" d="M832 576v192l-188.032 192h-515.968v-384c0 0-128-45.568-128-72v-520c0-26.432 21.568-48 48-48h864c26.432 0 48 21.568 48 48v528c0 26.368-128 64-128 64zM192 896h449.792v-128h126.208v-320.576l-202.688-151.424-32.064 24h-98.688l-39.872-24-202.688 150.976v449.024zM64 464l277.312-208-277.312-208v416zM106.624 0l341.376 256h64l341.312-256h-746.688zM896 48l-277.312 208 277.312 208v-416zM256 768h352v-64h-352v64zM256 640h416v-64h-416v64zM256 512h288v-64h-288v64z" data-tags="newsletter-subscribe" />
<glyph unicode="&#xe646;" d="M192 512h576v-64h-576v64zM192 640h512v-64h-512v64zM0 896v-896h704l256 256v640h-960zM896 256h-192v-192h-640v768h832v-576zM192 256h320v-64h-320v64zM192 384h320v-64h-320v64z" data-tags="note" />
<glyph unicode="&#xe647;" d="M960 768h-896c-35.136 0-64-28.8-64-64v-640c0-35.2 28.864-64 64-64h896c35.2 0 64 28.8 64 64v640c0 35.2-28.8 64-64 64zM960 64h-896v352h896v-352zM960 576h-896v128h896v-128zM128 192h128v-48h-128v48zM320 192h256v-48h-256v48z" data-tags="payment" />
<glyph unicode="&#xe648;" d="M1024 152.512c0-15.232-2.56-32.256-7.616-50.944-5.12-20.352-10.176-37.312-15.296-50.944-13.632-27.136-43.328-52.608-89.152-76.416-44.16-25.472-89.152-38.208-134.976-38.208-17.024 0-29.696 0.896-38.272 2.56-16.96 3.456-30.528 6.784-40.768 10.176-3.456 0-7.232 0.896-11.456 2.56-4.224 1.6-7.232 2.496-8.96 2.496-1.664 0-4.16 0.896-7.616 2.56l-7.616 2.56c-3.456 1.664-17.024 6.72-40.768 15.232-6.784 3.456-15.296 6.784-25.472 10.176-5.12 1.664-8.512 2.56-10.176 2.56-57.664 22.080-100.224 42.432-127.36 61.12-64.576 40.768-128.256 92.608-191.040 155.392-69.696 69.76-122.24 134.144-157.952 193.664-23.872 39.040-43.328 81.472-58.624 127.36-3.456 5.12-8.576 16.96-15.296 35.712-3.392 13.504-7.552 27.072-12.672 40.704 0 1.664-1.728 5.12-5.12 10.176-3.456 10.176-6.016 17.792-7.68 22.912-3.392 20.416-5.952 34.816-7.552 43.328-1.728 8.448-2.56 21.248-2.56 38.208 1.6 44.096 13.568 89.152 35.648 134.976 28.864 49.216 55.104 78.976 78.976 89.152 10.176 5.12 26.304 10.24 48.384 15.296 30.592 3.392 47.488 5.12 50.944 5.12h15.296c10.176-6.784 23.744-25.472 40.768-56l20.352-40.768c6.72-11.904 15.296-27.2 25.472-45.888l22.912-38.208 5.12-5.12c3.392-6.784 5.952-11.072 7.68-12.736 5.12-8.512 10.176-17.024 15.296-25.472 3.392-10.176 5.12-17.024 5.12-20.352-1.792-10.176-8.64-22.912-20.416-38.208-18.752-18.688-34.048-31.424-45.888-38.208-20.352-16.96-34.816-30.592-43.264-40.768-13.696-13.568-21.312-24.64-22.976-33.088 0-5.12 1.6-10.176 5.12-15.296l5.056-15.296c1.6 0 3.392-2.56 5.12-7.616 1.6-5.12 3.392-8.512 5.12-10.176l10.176-12.736c35.648-66.24 77.248-123.072 124.8-170.688 52.608-50.944 109.568-93.376 170.688-127.36 1.664 0 6.72-2.56 15.232-7.616 10.176-6.784 16.192-10.176 17.856-10.176 3.392-3.456 8.512-6.016 15.232-7.616 5.12-1.664 10.176-2.56 15.296-2.56 11.84 1.664 22.912 8.512 33.088 20.352 18.688 18.688 31.424 33.984 38.208 45.888 16.96 20.352 30.592 34.752 40.768 43.264 13.632 13.632 25.536 20.352 35.712 20.352 10.176-1.6 16.96-3.392 20.352-5.056 10.176-3.456 19.52-8.512 28.032-15.296 6.784-3.392 12.736-7.616 17.792-12.672 3.456-3.456 16.192-11.072 38.272-22.912 5.056-3.456 12.672-7.616 22.848-12.736s17.856-9.344 22.912-12.736c5.12-1.664 18.752-8.512 40.768-20.352 32.256-18.688 50.048-31.424 53.504-38.208 1.728-5.248 2.624-10.304 2.624-15.424z" data-tags="phone" />
<glyph unicode="&#xe649;" d="M512 960c-282.752 0-512-229.248-512-512s229.248-512 512-512c282.784 0 512 229.248 512 512s-229.216 512-512 512zM738.080 311.232c-2.272-9.152-4.576-16.736-6.88-22.848-6.080-12.192-19.392-23.584-39.936-34.24-19.808-11.424-39.968-17.12-60.544-17.12-7.584 0-13.312 0.384-17.12 1.152-7.616 1.504-13.696 3.040-18.24 4.576-1.568 0-3.264 0.384-5.152 1.152-1.92 0.736-3.264 1.152-4 1.152s-1.92 0.384-3.392 1.12l-3.424 1.152c-1.536 0.736-7.616 3.040-18.272 6.848-3.040 1.536-6.848 3.040-11.392 4.576-2.272 0.736-3.808 1.152-4.576 1.152-25.888 9.888-44.928 19.008-57.088 27.392-28.928 18.272-57.472 41.472-85.632 69.664-31.232 31.2-54.816 60.128-70.784 86.752-10.688 17.504-19.424 36.544-26.272 57.088-1.536 2.272-3.808 7.584-6.848 16-1.536 6.080-3.424 12.16-5.696 18.272 0 0.736-0.768 2.304-2.304 4.576-1.536 4.576-2.656 8-3.392 10.272-1.536 9.12-2.688 15.584-3.424 19.424-0.768 3.776-1.152 9.504-1.152 17.12 0.736 19.776 6.080 39.968 16 60.512 12.928 22.048 24.704 35.392 35.392 39.968 4.576 2.272 11.776 4.576 21.696 6.848 13.696 1.536 21.312 2.304 22.848 2.304h6.848c4.576-3.040 10.656-11.424 18.272-25.12l9.152-18.272c3.040-5.344 6.848-12.192 11.392-20.544l10.304-17.12 2.272-2.304c1.536-3.040 2.656-4.96 3.424-5.696 2.272-3.808 4.576-7.616 6.848-11.424 1.504-4.576 2.272-7.616 2.272-9.12-0.768-4.576-3.808-10.272-9.12-17.12-8.416-8.384-15.264-14.080-20.576-17.12-9.12-7.616-15.616-13.696-19.392-18.272-6.080-6.112-9.536-11.072-10.272-14.848 0-2.304 0.736-4.576 2.272-6.848l2.272-6.848c0.736 0 1.536-1.12 2.272-3.392 0.736-2.304 1.536-3.84 2.272-4.576l4.576-5.696c16-29.696 34.656-55.232 55.968-76.512 23.552-22.848 49.088-41.888 76.512-57.088 0.736 0 3.040-1.152 6.848-3.424 4.576-3.040 7.232-4.576 8-4.576 1.504-1.536 3.776-2.656 6.848-3.424 2.272-0.768 4.576-1.152 6.848-1.152 5.312 0.736 10.272 3.808 14.848 9.12 8.384 8.384 14.048 15.232 17.12 20.576 7.584 9.152 13.696 15.584 18.272 19.392 6.048 6.080 11.392 9.12 15.968 9.12 4.608-0.736 7.584-1.504 9.152-2.272 4.576-1.536 8.736-3.84 12.544-6.848 3.040-1.536 5.728-3.424 8-5.696 1.536-1.536 7.264-4.96 17.12-10.272 2.272-1.504 5.728-3.424 10.272-5.696 4.576-2.272 8-4.192 10.272-5.728 2.272-0.736 8.384-3.808 18.272-9.12 14.432-8.384 22.432-14.080 23.968-17.12 0.736-2.272 1.12-4.576 1.12-6.848-0.032-7.008-1.152-14.624-3.456-22.976z" data-tags="phone-circle" />
<glyph unicode="&#xe64a;" d="M972.8 960h-921.6c-28.16 0-51.2-23.040-51.2-51.136v-921.664c0-28.16 23.040-51.2 51.2-51.2h921.6c28.096 0 51.2 23.040 51.2 51.2v921.664c0 28.096-23.040 51.136-51.2 51.136zM320 128h-128v64h128v-64zM320 256h-128v64h128v-64zM320 384h-128v64h128v-64zM512 128h-128v64h128v-64zM512 256h-128v64h128v-64zM512 384h-128v64h128v-64zM704 128h-128v64h128v-64zM704 256h-128v64h128v-64zM704 384h-128v64h128v-64zM832 128h-64v192h64v-192zM896 576h-768v256h768v-256z" data-tags="quote" />
<glyph unicode="&#xe64b;" d="M791.296 628.992l-180.992-180.992 180.992-180.992-90.496-90.56-181.056 181.056-180.992-181.056-90.496 90.56 180.992 180.992-180.992 180.992 90.496 90.56 180.992-181.056 181.056 181.056z" data-tags="remove" />
<glyph unicode="&#xe64c;" d="M874.048 810.048c-99.968 99.968-231.040 149.952-362.048 149.952s-262.016-49.984-362.048-149.952c-200-200-200-524.096 0-724.096 99.968-99.968 231.040-149.952 362.048-149.952s262.016 49.984 362.048 149.952c199.936 199.936 199.936 524.16 0 724.096zM828.8 131.2c-84.608-84.608-197.12-131.2-316.8-131.2s-232.192 46.592-316.8 131.2c-84.608 84.672-131.2 197.12-131.2 316.8s46.592 232.128 131.264 316.8c84.608 84.608 197.056 131.2 316.736 131.2s232.192-46.592 316.8-131.2c174.656-174.72 174.656-458.88 0-633.6zM693.056 719.552l-181.056-181.056-180.992 181.056-90.496-90.56 180.992-180.992-180.992-180.992 90.496-90.56 180.992 181.056 181.056-181.056 90.496 90.56-181.056 180.992 181.056 180.992z" data-tags="remove-circle" />
<glyph unicode="&#xe64d;" d="M149.952 810.048c-200-200-200-524.096 0-724.096 199.936-199.936 524.096-200 724.096 0 199.936 199.936 199.936 524.16 0 724.096s-524.16 199.936-724.096 0zM783.552 628.992l-180.992-180.992 180.992-180.992-90.496-90.496-181.056 180.992-180.992-180.992-90.496 90.496 180.992 180.992-180.992 180.992 90.496 90.496 180.992-180.992 180.992 180.992 90.56-90.496z" data-tags="remove-circle-reverse" />
<glyph unicode="&#xe64e;" d="M768 84.416c-3.008 69.248-14.976 133.376-36.16 192.192-24 64.832-54.272 120.576-90.496 167.36-39.040 51.264-83.648 95.744-133.376 133.44-48.256 36.16-104.064 66.24-167.424 90.432-58.752 21.056-122.816 33.152-192.192 36.16-7.552 0-12.096-2.24-13.568-6.784-4.544-4.48-6.784-9.024-6.784-13.568v-83.648c0-4.48 1.472-9.024 4.48-13.568 6.016-4.544 11.328-6.784 15.872-6.784 85.888-3.008 167.36-27.136 244.224-72.32 73.92-46.784 133.376-106.304 178.688-178.624 45.184-78.4 69.376-159.872 72.32-244.224 1.536-6.080 3.776-11.392 6.784-15.808 6.080-3.136 10.624-4.672 13.504-4.672h83.84c4.48 0 8.96 2.304 13.568 6.848 4.416 1.472 6.72 5.952 6.72 13.568zM519.168 84.416c-5.952 99.456-43.648 185.472-113.088 257.792-73.792 70.848-159.744 108.608-257.728 113.088-6.016 0-10.56-1.536-13.568-4.48-4.544-4.544-6.784-9.856-6.784-15.936v-83.712c0-4.48 1.472-9.024 4.48-13.504 4.544-4.48 9.024-6.784 13.568-6.784 67.904-5.952 125.184-31.68 171.904-76.928 46.784-48.32 72.32-105.472 76.928-171.904 0-4.416 2.24-9.088 6.784-13.504 6.016-3.008 10.496-4.544 13.504-4.544h83.712c6.080 1.536 11.328 3.84 15.808 6.848 3.008 4.544 4.48 8.96 4.48 13.568zM271.744 134.976c-1.344 19.648-8.512 36.672-21.632 51.136-15.744 14.528-32.832 21.696-51.2 21.696-18.368-1.344-35.456-8.512-51.2-21.696-13.12-14.4-19.712-31.488-19.712-51.136 1.344-19.84 7.872-36.736 19.712-51.264 15.744-13.056 32.832-19.712 51.136-19.712 20.992 1.344 38.080 7.936 51.2 19.776 14.464 17.024 21.696 34.112 21.696 51.2z" data-tags="rss" />
<glyph unicode="&#xe64f;" d="M1024 768.32v-640.512c-1.6-52.992-20.288-98.304-56.128-135.68-38.976-37.44-84.16-56.128-135.552-56.128h-640.576c-52.992 1.536-98.24 20.288-135.616 56.128-37.44 38.976-56.128 84.224-56.128 135.68v640.512c1.536 52.992 20.288 98.24 56.064 135.616 38.976 37.376 90.24 56.064 135.68 56.064h612.864c53.056-1.6 125.952-20.288 163.328-56.064 37.376-38.976 56.064-84.16 56.064-135.616zM832.32 127.808c-3.136 71.616-15.488 137.856-37.44 198.656-24.832 67.008-56.064 124.608-93.504 172.992-40.448 52.992-86.528 99.008-137.92 137.984-49.92 37.376-107.584 68.48-172.992 93.504-60.8 21.76-126.976 34.24-198.72 37.376-7.808 0-12.48-2.304-14.016-6.976-4.736-4.672-7.040-9.344-7.040-14.080v-86.464c0-4.672 1.536-9.344 4.672-14.016 6.208-4.672 11.712-6.976 16.384-6.976 88.832-3.136 172.992-28.032 252.48-74.816 76.416-48.384 137.92-109.952 184.704-184.704 46.656-81.024 71.68-165.248 74.752-252.48 1.6-6.272 3.904-11.776 6.976-16.384 6.336-3.136 11.008-4.736 14.016-4.736h86.656c4.608 0 9.216 2.368 14.016 7.104 4.608 1.536 6.976 6.144 6.976 14.016zM575.104 127.808c-6.208 102.784-45.12 191.68-116.928 266.496-76.288 73.216-165.12 112.256-266.432 116.864-6.208 0-10.88-1.6-14.016-4.608-4.736-4.672-7.040-10.176-7.040-16.448v-86.528c0-4.608 1.536-9.28 4.672-14.016 4.672-4.672 9.344-6.976 14.016-6.976 70.144-6.208 129.408-32.768 177.664-79.488 48.384-49.92 74.816-109.056 79.552-177.664 0-4.608 2.304-9.344 6.976-14.016 6.272-3.136 10.88-4.736 14.016-4.736h86.528c6.336 1.6 11.776 3.968 16.384 7.104 3.072 4.672 4.608 9.28 4.608 14.016zM341.312 190.912c-1.536 23.36-10.112 43.584-25.728 60.736-18.688 17.216-38.912 25.728-60.8 25.728-21.76-1.536-42.048-10.112-60.8-25.728-15.552-17.216-23.36-37.376-23.36-60.736 1.536-23.424 9.344-43.648 23.36-60.8 18.688-15.552 38.976-23.424 60.8-23.424 24.96 1.6 45.248 9.408 60.8 23.424 17.216 20.288 25.728 40.512 25.728 60.8z" data-tags="rss-enclosed" />
<glyph unicode="&#xe650;" d="M832 960h-832v-1024h1024v832l-192 192zM192 896h256v-256h192v256h64v-320h-512v320zM832 0h-640v320h640v-320zM320 256h384v-64h-384v64zM320 128h384v-64h-384v64z" data-tags="save" />
<glyph unicode="&#xe651;" d="M1024 896v-960h-1024v960h1024zM960 832h-896v-832h896v832zM192 640h384v64h-384v-64zM192 128h256v64h-256v-64zM384 512h192v64h-192v-64zM384 256h192v64h-192v-64zM512 384h192v64h-192v-64z" data-tags="script" />
<glyph unicode="&#xe652;" d="M1014.336 11.968c14.656-22.656 12.672-43.392-6.016-62.016-9.216-8-20.608-12.672-33.856-14.016-12.032 0-23.296 4.608-33.984 14.016l-267.52 268.032c-77.248-58.688-163.136-88.64-257.6-89.984-102.528 0-193.024 33.344-271.552 100.032-95.872 83.968-143.808 189.248-143.808 315.968 0 102.656 33.28 193.28 99.84 272 83.904 96 189.056 144 315.52 144 102.464 0 192.96-33.344 271.552-100.032 95.808-84.032 143.744-189.376 143.744-316.032 0-96-29.952-182.016-89.792-257.984l267.52-268.032c1.28-1.28 3.328-3.264 5.952-5.952zM666.944 352c41.216 57.28 62.528 121.28 63.872 192 0 70.656-22.016 135.296-65.856 193.984-62.592 81.28-145.728 121.984-249.6 121.984-70.592 0-135.104-22.016-193.664-65.984-81.28-64-121.856-147.328-121.856-249.984 0-72 21.952-136.704 65.92-193.984 63.872-81.344 147.072-121.984 249.6-121.984 69.184 0 133.12 21.312 191.68 64 21.248 18.624 41.28 38.592 59.904 59.968z" data-tags="search" />
<glyph unicode="&#xe653;" d="M495.68 654.016c-35.328 0-67.584-11.008-96.896-33.024-40.512-32-60.864-73.664-60.864-124.992 0-36.032 10.944-68.352 32.96-97.024 31.936-40.704 73.472-60.992 124.8-60.992 34.56 0 66.56 10.624 95.808 32 10.624 9.344 20.608 19.328 30.016 30.016 20.608 28.608 31.232 60.608 31.872 96 0 35.328-11.008 67.648-32.896 97.024-31.36 40.576-72.832 60.992-124.8 60.992zM0 960v-1024h1024v1024h-1024zM792.128 198.976c-4.608-4.032-10.24-6.4-16.896-6.976-6.016 0-11.712 2.304-17.024 6.976l-133.76 134.016c-38.592-29.376-81.536-44.352-128.768-44.992-51.328 0-96.576 16.64-135.808 49.984-47.872 41.984-71.872 94.656-71.872 158.016 0 51.328 16.64 96.64 49.92 136 41.984 48 94.528 72 157.76 72 51.2 0 96.448-16.704 135.744-49.984 47.936-41.984 71.872-94.656 71.872-158.016 0-48-14.912-91.008-44.928-129.024l133.76-134.016c0.768-0.704 1.728-1.664 3.008-3.008 7.36-11.328 6.336-21.632-3.008-30.976z" data-tags="search-boxed-reverse" />
<glyph unicode="&#xe654;" d="M970.688 896h-917.312c-35.264 0-53.376-18.112-53.376-53.376v-149.248c0-35.264 16-53.376 51.264-53.376h919.424c35.136 0 53.312 18.112 53.312 53.376v160c0 35.136-18.176 42.624-53.312 42.624zM640 720c0-8.832-7.168-16-16-16h-32c-8.832 0-16 7.168-16 16v32c0 8.832 7.168 16 16 16h32c8.832 0 16-7.168 16-16v-32zM768 720c0-8.832-7.168-16-16-16h-32c-8.832 0-16 7.168-16 16v32c0 8.832 7.168 16 16 16h32c8.832 0 16-7.168 16-16v-32zM896 720c0-8.832-7.168-16-16-16h-32c-8.832 0-16 7.168-16 16v32c0 8.832 7.168 16 16 16h32c8.832 0 16-7.168 16-16v-32zM970.688 576h-917.312c-35.264 0-53.376-18.112-53.376-53.376v-149.248c0-35.264 16-53.376 51.264-53.376h919.424c35.136 0 53.312 18.112 53.312 53.376v160c0 35.136-18.176 42.624-53.312 42.624zM640 400c0-8.832-7.168-16-16-16h-32c-8.832 0-16 7.168-16 16v32c0 8.832 7.168 16 16 16h32c8.832 0 16-7.168 16-16v-32zM768 400c0-8.832-7.168-16-16-16h-32c-8.832 0-16 7.168-16 16v32c0 8.832 7.168 16 16 16h32c8.832 0 16-7.168 16-16v-32zM896 400c0-8.832-7.168-16-16-16h-32c-8.832 0-16 7.168-16 16v32c0 8.832 7.168 16 16 16h32c8.832 0 16-7.168 16-16v-32zM970.688 256h-917.312c-35.264 0-53.376-18.112-53.376-53.376v-149.248c0-35.264 16-53.376 51.264-53.376h919.424c35.136 0 53.312 18.112 53.312 53.376v160c0 35.136-18.176 42.624-53.312 42.624zM640 80c0-8.832-7.168-16-16-16h-32c-8.832 0-16 7.168-16 16v32c0 8.832 7.168 16 16 16h32c8.832 0 16-7.168 16-16v-32zM768 80c0-8.832-7.168-16-16-16h-32c-8.832 0-16 7.168-16 16v32c0 8.832 7.168 16 16 16h32c8.832 0 16-7.168 16-16v-32zM896 80c0-8.832-7.168-16-16-16h-32c-8.832 0-16 7.168-16 16v32c0 8.832 7.168 16 16 16h32c8.832 0 16-7.168 16-16v-32z" data-tags="server" />
<glyph unicode="&#xe655;" d="M640 960h-448c-35.328 0-64-28.672-64-64v-832c0-35.328 28.672-64 64-64h448c35.328 0 64 28.672 64 64v832c0 35.328-28.672 64-64 64zM416 43.392c-29.44 0-53.312 23.872-53.312 53.312s23.872 53.312 53.312 53.312c29.44 0 53.312-23.872 53.312-53.312s-23.872-53.312-53.312-53.312zM640 192h-448v640h448v-640z" data-tags="smartphone" />
<glyph unicode="&#xe656;" d="M841.984 752c96-93.312 144-207.36 144-342.016 0-121.344-40.704-227.328-121.984-318.016-94.656-104-211.968-155.968-352-155.968-121.344 0-227.328 40.704-318.016 121.984-104 94.656-156.032 212.672-156.032 353.984 0 40 5.312 80.64 16 121.984 33.344 126.656 107.328 222.656 222.016 288l68.032-117.952c-14.656-8-28.672-17.984-41.984-30.016-85.312-68.032-128-156.032-128-264 0-78.656 24.64-148.672 73.984-209.984 68.032-85.312 156.032-128 264-128 77.312 0 147.328 24.704 209.984 73.984 85.312 66.688 128 154.688 128 264 0 18.688-1.984 38.016-6.016 57.984-17.28 104-71.936 182.72-163.968 236.032l68.032 118.016c33.28-18.688 64.64-42.048 93.952-70.016zM448 448h128v512h-128v-512z" data-tags="startup" />
<glyph unicode="&#xe657;" d="M1024 455.111c0-5.348-0.683-10.012-1.991-13.995s-3.982-8.021-8.021-12.004c-2.674-3.982-6.315-6.997-10.98-8.988s-9.671-3.698-15.019-5.006l-641.991-92.729c0-1.308 0.341-3.356 1.024-5.973 0.683-2.674 1.65-5.348 3.015-8.021 0-2.674 0.341-5.348 1.024-8.021s1.024-5.348 1.024-8.021c1.308-2.674 1.991-5.006 1.991-6.997s0-4.324 0-6.997c0-2.674-1.024-7.339-3.015-13.995-1.991-6.713-5.689-15.36-10.98-25.998h565.988c5.348 0 10.354-0.683 15.019-1.991s8.988-3.982 13.028-8.021 6.997-8.306 8.988-13.028c1.991-4.722 3.015-9.671 3.015-15.019s-1.024-10.354-3.015-15.019c-1.991-4.722-5.006-8.988-8.988-13.028s-8.306-6.997-13.028-8.988-9.671-3.015-15.019-3.015h-630.044c-5.348 0-10.354 1.024-15.019 3.015s-8.988 5.12-13.028 9.102-6.997 8.306-8.988 13.028c-1.991 4.665-3.015 9.671-3.015 15.019 0 2.674 0.683 5.973 1.991 10.012s3.356 8.647 5.973 13.995c1.308 5.291 3.641 10.98 6.997 17.010s6.997 12.288 10.98 19.001c2.674 6.656 5.348 12.004 8.021 15.986s3.982 6.656 3.982 8.021l-109.909 544.142h-124.018c-5.348 0-10.354 1.024-15.019 3.015s-8.988 4.949-12.971 8.988-6.997 8.306-8.988 12.971c-1.991 4.665-3.015 9.671-3.015 15.019 0 5.291 1.024 10.297 3.015 15.019 1.991 4.608 5.006 8.988 8.988 12.971s8.306 6.997 13.028 8.988c4.665 1.991 9.671 3.015 15.019 3.015h155.989c3.982 0 7.339-0.341 10.012-1.024s5.348-1.707 8.021-3.015c2.617-1.308 4.949-2.958 6.94-4.949s3.641-3.698 5.006-5.006c2.674-2.731 4.665-5.006 5.973-6.997s22.016-91.307 22.016-91.307h729.998c5.348 0 10.354-1.024 15.019-3.015s8.988-5.006 13.028-8.988 6.997-8.306 8.988-13.028c1.934-4.665 2.958-9.671 2.958-14.962v-301.17zM387.982 112.355c3.982-9.33 5.973-19.342 5.973-29.98 0-10.695-1.991-20.708-5.973-29.98-3.982-9.33-10.012-17.977-17.977-25.998-6.656-8.021-14.677-13.995-24.007-17.977s-19.342-5.973-29.98-5.973c-12.004 0-22.642 1.991-32.028 5.973s-17.351 10.012-24.007 17.977c-8.021 8.021-13.995 16.668-17.977 25.998s-5.973 19.285-5.973 29.98c0 10.695 1.991 20.651 5.973 29.98s10.012 17.977 17.977 25.998c6.656 6.656 14.677 12.004 24.007 15.986s20.025 5.973 32.028 5.973c10.695 0 20.651-1.991 29.98-5.973s17.351-9.33 24.007-15.986c8.021-7.964 13.995-16.668 17.977-25.998zM939.975 112.355c3.982-9.33 5.973-19.342 5.973-29.98 0-10.695-1.991-20.708-5.973-29.98-3.982-9.33-10.012-17.977-17.977-25.998s-16.668-13.995-25.998-17.977-19.342-5.973-29.98-5.973-20.651 1.991-29.98 5.973-17.977 10.012-25.998 17.977c-6.656 8.021-12.004 16.668-15.986 25.998s-5.973 19.285-5.973 29.98c0 10.695 1.991 20.651 5.973 29.98s9.33 17.977 15.986 25.998c8.021 6.656 16.668 12.004 25.998 15.986s19.342 5.973 29.98 5.973 20.651-1.991 29.98-5.973 17.977-9.33 25.998-15.986c8.021-7.964 13.995-16.668 17.977-25.998z" data-tags="store" />
<glyph unicode="&#xe658;" d="M169.984 275.968c10.624-49.344 26.624-86.656 48-112 24-26.688 59.328-49.984 105.984-70.016 29.312-13.312 56.64-27.328 81.984-41.984 14.656-9.344 36.672-22.016 65.984-38.016 17.344-7.936 30.72-12.608 40.064-13.952 10.688 0 24 4.032 40 12.032 8 4.032 29.312 15.296 64 33.984 24 13.312 51.328 27.328 81.984 41.984 25.344 13.312 40.704 21.312 46.016 24 8 5.312 16.704 13.312 25.984 24 2.688 4.032 6.016 11.328 9.984 22.016 2.688 8 4.672 20.032 6.016 36.032 1.344 9.344 4.032 25.344 8 48l-281.984-138.048-342.016 171.968zM862.016 353.984c9.28-17.344 16-48.704 19.968-94.016 4.032-38.656-0.704-100.672-14.016-185.984 0-5.312 5.312-11.328 16-17.984 11.968-6.656 24-8.704 35.968-6.016 10.688 2.688 17.984 12.672 22.016 30.016 11.968 77.312 14.656 144.64 8 201.984-8 53.312-14.016 88-17.984 104-4.032 13.312-8 22.656-12.032 28.032l-71.936-38.016 14.016-22.016zM1000 528l-425.984 238.016c-40 19.968-81.344 19.968-124.032 0l-425.984-238.016c-14.656-9.344-22.656-20.672-24-33.984 1.344-12.032 9.344-23.36 24-33.984l425.984-240c40-20.032 81.344-20.032 124.032 0l273.984 156.032-299.968 69.952c-4.032-2.688-16-4.032-36.032-4.032-27.968 0-50.688 5.312-67.968 16-17.408 9.344-26.752 22.656-28.032 40 1.28 16 10.624 30.016 28.032 41.984 18.624 10.688 41.28 16 67.968 16 45.312 0 76.032-11.968 92.032-35.968l315.968-105.984 80 46.016c14.656 9.28 22.656 20.608 24 33.984-1.344 11.968-9.344 23.296-24 33.984z" data-tags="student" />
<glyph unicode="&#xe659;" d="M704 320h-256v128h256v107.904l256-171.904-256-171.904zM768 21.312c0-11.776-9.536-21.312-21.312-21.312h-661.312c-11.776 0-21.376 9.536-21.376 21.312v853.312c0 11.776 9.6 21.376 21.376 21.376h469.312c11.776 0 21.312-9.6 21.312-21.376v-149.312c0-11.712 9.536-21.312 21.312-21.312h149.376c11.776 0 21.312-9.6 21.312-21.312v-46.272l64-45.696v155.968c0 11.776-6.784 28.096-15.040 36.416l-161.856 161.728c-8.256 8.256-24.64 15.040-36.352 15.040l-597.44 0.128c-11.712 0-21.312-9.6-21.312-21.312v-981.312c0-11.84 9.6-21.376 21.312-21.376h789.312c11.84 0 21.376 9.536 21.376 21.312v216.384l-64-45.696v-106.688z" data-tags="submit" />
<glyph unicode="&#xe65a;" d="M816.96 783.104l-161.856 161.728c-8.256 8.256-24.64 15.040-36.352 15.040l-597.376 0.128c-11.776 0-21.376-9.6-21.376-21.312v-981.312c0-11.84 9.6-21.376 21.376-21.376h789.312c11.776 0 21.312 9.536 21.312 21.312v789.376c0 11.712-6.784 28.096-15.040 36.416v0zM768 21.312c0-11.776-9.536-21.312-21.312-21.312h-661.312c-11.776 0-21.376 9.536-21.376 21.312v853.376c0 11.712 9.6 21.312 21.376 21.312h469.312c11.776 0 21.312-9.6 21.312-21.312v-149.312c0-11.776 9.536-21.376 21.312-21.376h149.376c11.776 0 21.312-9.6 21.312-21.312v-661.376zM596.096 570.688c-6.976 7.104-18.624 7.104-25.792 0l-205.824-205.824-13.312-12.288-12.416 12.288-77.12 77.184c-7.104 7.040-18.688 7.040-25.728 0l-38.592-38.592c-7.040-7.104-7.040-18.688 0-25.792l141.504-141.504c7.040-7.104 18.688-7.104 25.664 0l270.272 270.144c6.976 7.040 6.976 18.688 0 25.728l-38.656 38.656z" data-tags="supported" />
<glyph unicode="&#xe65b;" d="M960 682.688l-480.192 277.312-479.808-277.056v-469.824l479.808-276.992 480.192 277.248v469.312zM448 28.416l-384 221.696v357.568l384-221.696v-357.568zM94.784 663.808l385.024 222.208 385.216-222.464-384.96-222.208-385.28 222.464zM896 250.304l-384-221.696v357.248l384 221.696v-357.248zM479.936-64l-0.128 0.128-0.192-0.128z" data-tags="systemobject" />
<glyph unicode="&#xe65c;" d="M698.304 472.576v-105.664c0-3.84-1.344-7.552-4.032-11.2s-5.76-5.632-9.152-6.016l-88.576-13.696c-4.16-13.312-10.24-27.84-18.24-43.456 12.928-18.24 30.080-40.192 51.456-65.664 2.624-3.84 4.032-7.616 4.032-11.456 0-4.544-1.344-8.192-4.032-10.88-8.832-11.456-24.512-28.48-47.168-51.136s-37.632-33.984-44.8-33.984c-4.16 0-8.192 1.344-12.032 4.032l-65.728 51.456c-14.080-7.232-28.736-13.184-44.032-17.728-4.16-41.152-8.576-70.656-13.12-88.576-2.688-9.152-8.384-13.696-17.152-13.696h-106.304c-4.16 0-8 1.408-11.392 4.224-3.456 2.88-5.312 6.208-5.696 9.984l-13.184 87.424c-12.928 3.84-27.264 9.728-42.816 17.728l-67.456-50.816c-2.688-2.688-6.464-4.032-11.456-4.032-4.16 0-8.192 1.472-12.032 4.544-54.848 50.688-82.304 81.152-82.304 91.456 0 3.456 1.344 7.040 4.032 10.88 3.84 5.312 11.648 15.36 23.424 30.272s20.736 26.496 26.816 34.88c-8.704 16.704-15.36 32.384-19.904 46.848l-86.848 13.696c-3.84 0.384-7.040 2.176-9.728 5.44s-4.032 6.912-4.032 11.136v105.728c0 3.776 1.344 7.488 4.032 11.136s5.696 5.632 9.152 6.016l88.576 13.696c4.16 13.312 10.304 27.84 18.304 43.456-12.992 18.304-30.080 40.192-51.456 65.728-2.688 4.16-4.032 7.936-4.032 11.328 0 4.608 1.344 8.384 4.032 11.456 8.384 11.456 24 28.352 46.848 50.88 22.848 22.464 37.888 33.664 45.12 33.664 4.16 0 8.192-1.344 12.032-4.032l65.728-51.392c12.928 6.848 27.648 12.928 44.032 18.304 4.16 41.152 8.576 70.464 13.184 88 2.56 9.152 8.256 13.76 17.024 13.76h106.304c4.16 0 8-1.408 11.456-4.288 3.392-2.88 5.312-6.208 5.696-9.984l13.12-87.488c12.928-3.84 27.264-9.728 42.88-17.728l67.456 50.816c3.072 2.688 6.848 4.032 11.456 4.032 4.16 0 8.192-1.472 12.032-4.544 54.784-50.688 82.24-81.152 82.24-91.456 0-3.392-1.344-7.040-4.032-10.816-4.608-6.080-12.608-16.384-24-30.848-11.456-14.528-20.032-25.92-25.728-34.304 8.768-18.304 15.232-33.92 19.456-46.848l86.784-13.184c3.84-0.768 7.040-2.752 9.728-6.016 2.688-3.2 4.032-6.912 4.032-11.072zM436.032 317.12c28.544 28.544 42.88 63.040 42.88 103.424s-14.336 74.816-42.88 103.424c-28.608 28.608-63.104 42.88-103.424 42.88-40.384 0-74.88-14.272-103.488-42.816-28.544-28.608-42.816-63.104-42.816-103.488s14.272-74.88 42.816-103.424 63.040-42.816 103.488-42.816c40.32 0 74.816 14.272 103.424 42.816zM1064 753.152v-80c0-6.080-28.352-12.032-85.12-17.728-4.544-10.304-10.304-20.16-17.152-29.696 19.456-43.008 29.12-69.312 29.12-78.848 0-1.536-0.768-2.816-2.304-4.032-46.464-27.072-70.080-40.576-70.784-40.576-3.072 0-11.84 8.96-26.304 26.816s-24.384 30.848-29.696 38.848c-7.616-0.768-13.376-1.152-17.216-1.152s-9.472 0.384-17.152 1.152c-5.312-8-15.232-20.992-29.696-38.848-14.528-17.92-23.232-26.816-26.304-26.816-0.768 0-24.384 13.504-70.848 40.576-1.472 1.152-2.24 2.496-2.24 4.032 0 9.536 9.664 35.84 29.12 78.848-6.848 9.536-12.544 19.456-17.152 29.696-56.768 5.696-85.12 11.648-85.12 17.728v80c0 6.080 28.352 12.032 85.12 17.728 4.928 11.008 10.624 20.928 17.152 29.696-19.456 43.008-29.12 69.312-29.12 78.848 0 1.536 0.768 2.88 2.24 4.032 1.536 0.768 8.192 4.608 20.032 11.456s23.040 13.312 33.728 19.456c10.624 6.080 16.384 9.152 17.152 9.152 3.072 0 11.84-8.832 26.304-26.56s24.384-30.592 29.696-38.592c7.616 0.768 13.312 1.152 17.152 1.152s9.536-0.384 17.216-1.152c19.456 27.008 36.928 48.384 52.544 64l3.456 1.152c1.472 0 25.152-13.312 70.784-40 1.536-1.152 2.304-2.496 2.304-4.032 0-9.536-9.664-35.84-29.12-78.848 6.464-8.768 12.16-18.688 17.152-29.696 56.704-5.824 85.056-11.712 85.056-17.792zM1064 168v-80c0-6.144-28.352-12.032-85.12-17.664-4.544-10.304-10.304-20.16-17.152-29.76 19.456-43.072 29.12-69.312 29.12-78.848 0-1.472-0.768-2.816-2.304-4.032-46.464-27.008-70.080-40.512-70.784-40.512-3.072 0-11.84 8.96-26.304 26.816-14.528 17.92-24.384 30.848-29.696 38.848-7.616-0.768-13.376-1.216-17.216-1.216s-9.472 0.448-17.152 1.216c-5.312-8-15.232-20.928-29.696-38.848-14.528-17.856-23.232-26.816-26.304-26.816-0.768 0-24.384 13.504-70.848 40.512-1.472 1.216-2.24 2.496-2.24 4.032 0 9.536 9.664 35.84 29.12 78.848-6.848 9.536-12.544 19.456-17.152 29.76-56.768 5.696-85.12 11.584-85.12 17.664v80c0 6.080 28.352 12.032 85.12 17.664 4.928 11.072 10.624 20.992 17.152 29.76-19.456 43.072-29.12 69.312-29.12 78.848 0 1.472 0.768 2.816 2.24 4.032 1.536 0.768 8.192 4.544 20.032 11.392s23.040 13.376 33.728 19.456c10.624 6.144 16.384 9.216 17.152 9.216 3.072 0 11.84-8.896 26.304-26.624 14.464-17.664 24.384-30.592 29.696-38.592 7.616 0.768 13.312 1.216 17.152 1.216s9.536-0.448 17.216-1.216c19.456 27.072 36.928 48.384 52.544 64l3.456 1.216c1.472 0 25.152-13.376 70.784-40 1.536-1.216 2.304-2.496 2.304-4.032 0-9.536-9.664-35.84-29.12-78.848 6.464-8.768 12.16-18.688 17.152-29.76 56.704-5.76 85.056-11.648 85.056-17.728zM917.76 713.152c0 19.84-7.232 36.928-21.76 51.456-14.464 14.464-31.616 21.696-51.456 21.696s-36.928-7.232-51.392-21.696c-14.528-14.528-21.76-31.616-21.76-51.456 0-20.16 7.104-37.44 21.44-51.712s31.552-21.44 51.712-21.44 37.44 7.104 51.776 21.376c14.272 14.336 21.44 31.552 21.44 51.776zM917.76 128c0 19.84-7.232 36.928-21.76 51.456-14.464 14.464-31.616 21.696-51.456 21.696s-36.928-7.232-51.392-21.696c-14.528-14.528-21.76-31.616-21.76-51.456 0-20.16 7.104-37.44 21.44-51.712 14.336-14.336 31.488-21.44 51.712-21.44s37.44 7.104 51.776 21.44c14.272 14.272 21.44 31.552 21.44 51.712z" data-tags="system-requirements" />
<glyph unicode="&#xe65d;" d="M874.688 960h-789.312c-11.776 0-21.376-9.536-21.376-21.312v-170.688h-32c-17.6 0-32-14.4-32-32s14.4-32 32-32h32v-128h-32c-17.6 0-32-14.4-32-32s14.4-32 32-32h32v-128h-32c-17.6 0-32-14.4-32-32s14.4-32 32-32h32v-128h-32c-17.6 0-32-14.4-32-32s14.4-32 32-32h32v-170.624c0-11.776 9.6-21.376 21.376-21.376l597.312 0.128c11.776 0 28.096 6.72 36.352 14.976l161.856 161.728c8.32 8.384 15.104 24.768 15.104 36.544v789.312c0 11.776-9.536 21.312-21.312 21.312zM832 213.376c0-11.776-9.536-21.376-21.312-21.376h-149.376c-11.776 0-21.312-9.6-21.312-21.376v-149.248c0-11.776-9.536-21.376-21.312-21.376h-469.312c-11.776 0-21.376 9.6-21.376 21.376v106.624h64v64h-64v128h64v64h-64v128h64v64h-64v128h64v64h-64v106.688c0 11.776 9.6 21.312 21.376 21.312h661.312c11.776 0 21.312-9.536 21.312-21.312v-661.312zM656 704h-288c-26.368 0-48-21.568-48-48v-96c0-26.368 21.632-48 48-48h288c26.368 0 48 21.632 48 48v96c0 26.432-21.632 48-48 48zM640 576h-256v64h256v-64z" data-tags="techkit" />
<glyph unicode="&#xe65e;" d="M992 896h-960c-17.6 0-32-14.4-32-32v-64c0-17.6 14.4-32 32-32h960c17.536 0 32 14.4 32 32v64c0 17.6-14.464 32-32 32zM928 704h-832c-17.6 0-32-14.4-32-32v-512c0-17.536 14.4-32 32-32h384v-73.792c-18.752-11.136-32-30.784-32-54.208 0-35.328 28.672-64 64-64s64 28.672 64 64c0 23.424-13.184 43.072-32 54.208v73.792h384c17.536 0 32 14.464 32 32v512c0 17.6-14.464 32-32 32z" data-tags="training" />
</font>
</defs>
</svg>
