<?xml version="1.0" standalone="no"?>
<!DOCTYPE svg PUBLIC "-//W3C//DTD SVG 1.1//EN" "http://www.w3.org/Graphics/SVG/1.1/DTD/svg11.dtd" >
<svg xmlns="http://www.w3.org/2000/svg">
<metadata>Generated by IcoMoon</metadata>
<defs>
<font id="icomoon" horiz-adv-x="1024">
<font-face units-per-em="1024" ascent="960" descent="-64" />
<missing-glyph horiz-adv-x="1024" />
<glyph unicode="&#x20;" d="" horiz-adv-x="512" />
<glyph unicode="&#xe600;" d="M960-64h-896v1024h896v-1024zM768 768h-512v-64h512v64zM768 576h-512v-64h512v64zM768 384h-512v-64h512v64zM768 192h-512v-64h512v64z" />
<glyph unicode="&#xe601;" d="M938.667-64h-853.333v1024h853.333v-1024zM768 746.667h-512v-85.333h512v85.333zM768 576h-512v-85.333h512v85.333zM768 405.333h-512v-85.333h512v85.333zM768 234.667h-512v-85.333h512v85.333z" />
<glyph unicode="&#xe602;" d="M1024 64h-1024v512h1024v-512zM384 576c0-70.656 57.28-128 128-128 70.592 0 128 57.344 128 128zM0 576h64l160 160h576l160-160h64l-192 192h-640l-192-192z" />
<glyph unicode="&#xe603;" d="M1024 618.667v-512h-1024v512h384c0 0 22.699-130.005 128-130.005s128 130.005 128 130.005h384zM0 618.667h63.659l132.651 170.667h636.672l127.019-170.667h64l-169.771 213.333h-679.125l-175.104-213.333z" />
<glyph unicode="&#xe604;" d="M256 480c0 0 89.6-128 268.8-121.6 160 6.4 243.2 108.8 243.2 108.8v-531.2l-230.4 243.2-281.6-243.2v544zM768 716.8c0-134.316-114.615-243.2-256-243.2s-256 108.884-256 243.2c0 134.316 114.615 243.2 256 243.2s256-108.884 256-243.2z" />
<glyph unicode="&#xe605;" d="M1024 448c0-282.77-229.23-512-512-512s-512 229.23-512 512c0 282.77 229.23 512 512 512s512-229.23 512-512z" />
<glyph unicode="&#xe606;" d="M921.6 960h-819.2c-57.6 0-102.4-44.8-102.4-102.4v-563.2c0-57.6 44.8-102.4 102.4-102.4h281.6v-256l224 256h313.6c57.6 0 102.4 44.8 102.4 102.4v563.2c0 57.6-44.8 102.4-102.4 102.4zM320 512h-128v128h128v-128zM576 512h-128v128h128v-128zM832 512h-128v128h128v-128z" />
<glyph unicode="&#xe607;" d="M1024 362.667c0-93.867-76.8-170.667-170.667-170.667h-213.333l-256-256v256h-213.333c-93.867 0-170.667 76.8-170.667 170.667v426.667c0 93.867 76.8 170.667 170.667 170.667h682.667c93.867 0 170.667-76.8 170.667-170.667v-426.667zM810.667 661.333c-46.933 0-85.333-38.4-85.333-85.333s38.4-85.333 85.333-85.333 85.333 38.4 85.333 85.333-38.4 85.333-85.333 85.333zM512 661.333c-46.933 0-85.333-38.4-85.333-85.333s38.4-85.333 85.333-85.333 85.333 38.4 85.333 85.333-38.4 85.333-85.333 85.333zM213.333 661.333c-46.933 0-85.333-38.4-85.333-85.333s38.4-85.333 85.333-85.333 85.333 38.4 85.333 85.333-38.4 85.333-85.333 85.333z" />
<glyph unicode="&#xe608;" d="M832 832h128v-768h-128v768zM0 960h768v-832h-768v832zM128 576h512v64h-512v-64zM128 448h512v64h-512v-64zM128 320h512v64h-512v-64zM128 704h512v64h-512v-64zM128 64h832v-128h-832v128z" />
<glyph unicode="&#xe609;" d="M938.667 448.043c0-235.605-191.019-426.709-426.624-426.709-235.648 0-426.709 191.104-426.709 426.709s191.061 426.624 426.709 426.624c235.605 0 426.624-191.019 426.624-426.624zM490.667 298.667c-47.104 0-85.333-28.629-85.333-64.043 0-35.328 38.187-63.957 85.333-63.957 47.104 0 85.333 28.629 85.333 63.957 0 35.413-38.229 64.043-85.333 64.043zM548.949 415.445c5.248 11.264 18.688 26.112 40.32 44.629 41.856 35.755 69.163 64 82.005 84.736 12.715 20.736 19.115 42.752 19.115 66.005 0 41.984-17.408 78.805-52.224 110.421s-81.621 47.445-140.501 47.445c-55.979 0-101.205-15.616-135.637-46.891-34.347-31.189-52.949-69.205-55.595-113.963l94.165-11.989c6.571 31.232 18.603 54.485 36.139 69.76s39.296 22.869 65.323 22.869c27.008 0 48.469-7.296 64.384-21.931 15.957-14.635 23.979-32.171 23.979-52.693 0-14.763-4.48-28.245-13.525-40.491-5.845-7.765-23.723-24.107-53.632-49.109s-49.877-47.488-59.861-67.499-14.976-45.483-14.976-76.501c0-2.987 0.085-11.392 0.341-25.131h93.099c-0.512 28.971 1.877 49.109 7.083 60.331z" />
<glyph unicode="&#xe60a;" d="M569.6 960c0 0-19.2-121.6 32-192 64-83.2 166.4-147.2 166.4-256-6.4-102.4-96-192-96-192s-25.6-64 64-64c96 0 166.4 192 166.4 192s-12.8-185.6-64-320c-51.2-128-153.6-204.8-364.8-192-147.2 6.4-313.6 70.4-332.8 192-32 166.4 70.4 256 70.4 256s38.4-140.8 134.4-128c51.2 6.4 70.4 64 0 128-44.8 38.4-83.2 51.2-108.8 128-32 115.2 134.4 192 134.4 192s-25.6-172.8 32-192c57.6-12.8 128 0 134.4 96 0 96-83.2 134.4-70.4 224s102.4 128 102.4 128z" />
<glyph unicode="&#xe60b;" d="M960 704v-556.8h-896v556.8h896zM1024 768h-1024v-684.8h1024v684.8zM384 576v-211.2h-192v211.2h192zM448 640h-320v-339.2h320v339.2zM512 640h384v-64h-384v64zM512 512h384v-64h-384v64zM512 384h275.2v-64h-275.2v64z" />
<glyph unicode="&#xe60c;" d="M938.667 704v-512h-853.333v512h853.333zM1024 789.333h-1024v-682.667h1024v682.667zM341.333 533.333v-170.667h-85.333v170.667h85.333zM426.667 618.667h-256v-341.333h256v341.333zM512 618.667h341.333v-85.333h-341.333v85.333zM512 490.667h341.333v-85.333h-341.333v85.333zM512 362.667h213.333v-85.333h-213.333v85.333z" />
<glyph unicode="&#xe60d;" d="M256 704h192v-768h-192v768zM512 960h192v-1024h-192v1024zM768 320h192v-384h-192v384zM0 384h192v-448h-192v448z" />
<glyph unicode="&#xe60e;" d="M0 448c0 282.304 226.432 512 504.704 512 179.84 0 347.456-98.24 437.376-256.32l-124.928-73.088c-64.32 113.024-184.064 183.168-312.512 183.168-198.72 0-360.448-164.096-360.448-365.76s161.728-365.76 360.512-365.76c128.448 0 248.256 70.144 312.512 183.296l124.928-73.152c-89.92-158.144-257.536-256.384-437.44-256.384-278.272 0-504.704 229.696-504.704 512zM1024 896l-384-448h384z" />
<glyph unicode="&#xe60f;" d="M192 896v-896l768 448z" />
<glyph unicode="&#xe610;" d="M735.040 147.648c70.016 48.576 122.304 120.32 145.28 204.032l143.68-38.272c-34.752-126.464-117.44-233.536-227.584-301.248zM374.784 110.784c78.848-33.024 157.696-41.92 242.112-17.152l60.928-134.72c-127.68-37.44-264.576-30.464-381.12 26.048zM186.688 56.384c-94.272 81.472-153.984 152.128-186.688 339.072l154.816 7.424c-2.816-77.888 50.304-166.272 109.248-220.096zM5.632 527.296c39.808 166.464 90.88 260.096 251.584 361.92l63.296-135.040c-80.96-48.96-127.936-108.992-163.2-216.768-1.152-3.52-1.088 0.192-1.152-3.52zM372.672 939.712c3.52 1.024 7.040 1.984 10.624 2.88 179.392 46.784 372.224-4.608 503.168-134.144l-105.536-103.168c-90.56 89.536-222.464 126.848-346.944 98.944-4.16-1.024 9.6 2.176 5.44 1.088zM960 960l-384-384h384z" />
<glyph unicode="&#xe611;" d="M735.019 148.096c70.016 48.555 122.325 120.32 145.323 203.989l143.659-38.229c-34.773-126.507-117.419-233.557-227.584-301.269zM374.827 111.232c78.848-33.024 157.696-41.941 242.133-17.152l60.928-134.741c-127.701-37.461-264.619-30.507-381.099 26.027zM186.667 56.832c-94.293 81.408-153.941 152.107-186.667 339.072l154.837 7.381c-2.773-77.909 50.304-166.272 109.269-220.117zM5.589 527.701c39.808 166.443 90.88 260.053 251.605 361.941l63.275-135.040c-80.896-48.939-127.872-109.013-163.115-216.747-1.152-3.541-1.152 0.171-1.152-3.541zM372.693 940.117c3.499 0.981 7.040 1.963 10.624 2.901 179.413 46.763 372.224-4.608 503.211-134.144l-105.557-103.211c-90.539 89.557-222.421 126.848-346.965 98.944-4.181-0.939 9.6 2.261 5.419 1.195zM938.667 960l-341.333-384.128h341.333z" />
<glyph unicode="&#xe612;" d="M1024 640h-1024v256h1024v-256zM896 768h-64v-64h64v64zM704 768h-64v-64h64v64zM512 768h-64v-64h64v64zM1024 320h-1024v256h1024v-256zM896 448h-64v-64h64v64zM704 448h-64v-64h64v64zM512 448h-64v-64h64v64zM1024 0h-1024v256h1024v-256zM896 128h-64v-64h64v64zM704 128h-64v-64h64v64zM512 128h-64v-64h64v64z" />
<glyph unicode="&#xe613;" d="M1024 320h-1024v256h1024v-256zM896 448h-64v-64h64v64zM704 448h-64v-64h64v64zM512 448h-64v-64h64v64z" />
<glyph unicode="&#xe614;" d="M1024 576h-1024v-256h1024v256zM938.667 448c0-25.6-17.067-42.667-42.667-42.667s-42.667 17.067-42.667 42.667 17.067 42.667 42.667 42.667 42.667-17.067 42.667-42.667zM768 448c0-25.6-17.067-42.667-42.667-42.667s-42.667 17.067-42.667 42.667 17.067 42.667 42.667 42.667 42.667-17.067 42.667-42.667zM597.333 448c0-25.6-17.067-42.667-42.667-42.667s-42.667 17.067-42.667 42.667 17.067 42.667 42.667 42.667 42.667-17.067 42.667-42.667z" />
<glyph unicode="&#xe615;" d="M1024 448h-1024v256h1024v-256zM896 576h-64v-64h64v64zM704 576h-64v-64h64v64zM512 576h-64v-64h64v64zM1024 128h-1024v256h1024v-256zM896 256h-64v-64h64v64zM704 256h-64v-64h64v64zM512 256h-64v-64h64v64z" />
<glyph unicode="&#xe616;" d="M1024 704h-1024v-256h1024v256zM938.667 576c0-25.6-17.067-42.667-42.667-42.667s-42.667 17.067-42.667 42.667 17.067 42.667 42.667 42.667 42.667-17.067 42.667-42.667zM768 576c0-25.6-17.067-42.667-42.667-42.667s-42.667 17.067-42.667 42.667 17.067 42.667 42.667 42.667 42.667-17.067 42.667-42.667zM597.333 576c0-25.6-17.067-42.667-42.667-42.667s-42.667 17.067-42.667 42.667 17.067 42.667 42.667 42.667 42.667-17.067 42.667-42.667zM1024 405.333h-1024v-256h1024v256zM938.667 277.333c0-25.6-17.067-42.667-42.667-42.667s-42.667 17.067-42.667 42.667 17.067 42.667 42.667 42.667 42.667-17.067 42.667-42.667zM768 277.333c0-25.6-17.067-42.667-42.667-42.667s-42.667 17.067-42.667 42.667 17.067 42.667 42.667 42.667 42.667-17.067 42.667-42.667zM597.333 277.333c0-25.6-17.067-42.667-42.667-42.667s-42.667 17.067-42.667 42.667 17.067 42.667 42.667 42.667 42.667-17.067 42.667-42.667z" />
<glyph unicode="&#xe617;" d="M0 277.333h1024v-256h-1024v256z" />
<glyph unicode="&#xe618;" d="M938.667 149.333c0-23.564-19.103-42.667-42.667-42.667s-42.667 19.103-42.667 42.667c0 23.564 19.103 42.667 42.667 42.667s42.667-19.103 42.667-42.667z" />
<glyph unicode="&#xe619;" d="M768 149.333c0-23.564-19.103-42.667-42.667-42.667s-42.667 19.103-42.667 42.667c0 23.564 19.103 42.667 42.667 42.667s42.667-19.103 42.667-42.667z" />
<glyph unicode="&#xe61a;" d="M597.333 149.333c0-23.564-19.103-42.667-42.667-42.667s-42.667 19.103-42.667 42.667c0 23.564 19.103 42.667 42.667 42.667s42.667-19.103 42.667-42.667z" />
<glyph unicode="&#xe61b;" d="M0 576h1024v-256h-1024v256z" />
<glyph unicode="&#xe61c;" d="M938.667 448c0-23.564-19.103-42.667-42.667-42.667s-42.667 19.103-42.667 42.667c0 23.564 19.103 42.667 42.667 42.667s42.667-19.103 42.667-42.667z" />
<glyph unicode="&#xe61d;" d="M768 448c0-23.564-19.103-42.667-42.667-42.667s-42.667 19.103-42.667 42.667c0 23.564 19.103 42.667 42.667 42.667s42.667-19.103 42.667-42.667z" />
<glyph unicode="&#xe61e;" d="M597.333 448c0-23.564-19.103-42.667-42.667-42.667s-42.667 19.103-42.667 42.667c0 23.564 19.103 42.667 42.667 42.667s42.667-19.103 42.667-42.667z" />
<glyph unicode="&#xe61f;" d="M0 874.667h1024v-256h-1024v256z" />
<glyph unicode="&#xe620;" d="M938.667 746.667c0-23.564-19.103-42.667-42.667-42.667s-42.667 19.103-42.667 42.667c0 23.564 19.103 42.667 42.667 42.667s42.667-19.103 42.667-42.667z" />
<glyph unicode="&#xe621;" d="M768 746.667c0-23.564-19.103-42.667-42.667-42.667s-42.667 19.103-42.667 42.667c0 23.564 19.103 42.667 42.667 42.667s42.667-19.103 42.667-42.667z" />
<glyph unicode="&#xe622;" d="M597.333 746.667c0-23.564-19.103-42.667-42.667-42.667s-42.667 19.103-42.667 42.667c0 23.564 19.103 42.667 42.667 42.667s42.667-19.103 42.667-42.667z" />
<glyph unicode="&#xe623;" d="M128 832h768v-768h-768v768z" />
<glyph unicode="&#xe624;" d="M128 894.976h704v-128h-704v128zM320 958.976h320v-128h-320v128zM768-1.024h-576v704h576v-704zM384 574.976h-64v-448h64v448zM640 574.976h-64v-448h64v448zM512 574.976h-64v-448h64v448z" />
<glyph unicode="&#xe625;" d="M1024 128c0-108.8-83.2-192-192-192h-640c-108.8 0-192 83.2-192 192v640c0 108.8 83.2 192 192 192h678.4c83.2 0 153.6-70.4 153.6-153.6v-678.4zM0 128l288 256 96-192 128 256 128-256 192 448 128-256 64 76.8v185.6l-64-70.4-128 256-192-448-128 256-128-256-64 128-320-262.4z" />
<glyph unicode="&#xe626;" d="M0 422.4c0 0 172.8 409.6 512 409.6s512-409.6 512-409.6-211.2-358.4-512-358.4c-294.4 0-512 358.4-512 358.4zM755.2 448c0 128-102.4 236.8-236.8 236.8-128 0-230.4-108.8-230.4-236.8s102.4-236.8 236.8-236.8c121.6 0 230.4 108.8 230.4 236.8zM659.2 448c0-76.8-64-147.2-140.8-147.2s-140.8 64-140.8 147.2c0 76.8 64 147.2 140.8 147.2 83.2-6.4 140.8-70.4 140.8-147.2z" />
</font>
</defs>
</svg>
